>

5.6

iTunes

6.1

MVO

5.7

MVO

1

7.4

1 сезон

6.8

iTunes

7.2

1 сезон

13

6.7

1 сезон

8.3

RePack

30

Deluxe

pack

9.9

Лицензия

ВАЖНО

ИГРА 18+

pack

7.3

RePack

MK11

7.7

RePack

jed

7.8

RePack

fifa19

8.5

RePack

RDR2

RePack

NEED FOR SPEED™ PAYBACK

4 сезон

9 сезон

Бесстыжие 9 сезон

Все сериалы

все сериалы на PB.wtf

RePack

FAR CRY 5

Anonymous, доброе утро, мы катастрофически не успеваем собрать деньги на оплату серверов, помогите нам пожалуйста 5,10,15р., для нас важна любая помощь . В качестве благодарности мы отключим Вам всю рекламу на сайте (укажите свой ник в строку Ваше имя)!

×
  
Magnet ссылка

Джокер / Joker (Шириш Кандэр) [2012 г., фантастика, комедия, DVDRip, MVO] freetor.icu

Джокер через торрент freetor.icu

Размер: 1.27 GB | Добавлен: 8 лет 8 мес. назад | Торрент скачан:104 раза
Смотреть онлайн Джокер | Скачать    Ребята, помогите собрать деньги на оплату серверов!!!

30-12-2012 10:49 Джокер Скачать торрент  

Джокер / Joker

Год выпуска: 2012
Страна: Индия
Жанр: фантастика, комедия
Продолжительность: 01:43:33
Перевод: Профессиональный многоголосый [Zee TV]

Режиссер: Шириш Кандэр
Продюссер: Фара Кхан, Акшай Кумар, Шириш Кандэр
Сценарий: -

Мировой рейтинг IMDB 2.70 (1 278)


В ролях: Говардан Асрани, Автар Гилл, Гурприт Гугги, Грег Хеффернан, Враджеш Хирджи, Джавед Джеффри, Даршан Джаривала, Bikramjeet Kanwarpal, Фара Кхан, Акшай Кумар

Описание: В 1947 году, когда чертились границы Индии и Пакистана, местечку Паглапур нигде не нашлось места. После одного из боев во время передела границ, пациенты крупнейшей психиатрической лечебницы региона вырвались на свободу и поселились в Паглапуре, создав свою собственную республику. И так они существовали 60 лет! В то время как мир вокруг менялся, Паглапур оставался изолированным, без электричества, без телевидения и без здравого рассудка! И теперь, спустя десятилетия, когда все окончательно забыли об этом месте, учёный НАСА индийского происхождения и его красавица жена направляются в эту деревню. Ученый работает над сверхсекретным проектом по созданию устройств для общения с иностранцами. Так зачем он едет в деревню, колоритные обитатели которой, то воображают себя фонарными столбами, то говорят на языке, напоминающем бред, а то и вовсе считают, что Махатма Ганди всё ещё где-то рядом сражается за независимость? И, что наиболее важно, как они собираются переключить внимание всего Света на эту забытую всеми деревню?

Качество: DVDRip
Формат: AVI
Видео кодек: XviD
Аудио кодек: AC3
Видео: XviD, 720x304, 23.976 fps, 1547 kbps
Аудио#1: АС3, 48 kHz, 2 ch, 192 kbps

General
Complete name : H:киноDzhoker.2012.DVDRip.avi
Format : AVI
Format/Info : Audio Video Interleave
File size : 1.27 GiB
Duration : 1h 43mn
Overall bit rate : 1 749 Kbps
Writing application : VirtualDubMod 1.5.10.2 (build 2542/release)
Writing library : VirtualDubMod build 2542/release

Video
ID : 0
Format : MPEG-4 Visual
Format profile : Advanced Simple@L5
Format settings, BVOP : 1
Format settings, QPel : No
Format settings, GMC : No warppoints
Format settings, Matrix : Default (H.263)
Muxing mode : Packed bitstream
Codec ID : XVID
Codec ID/Hint : XviD
Duration : 1h 43mn
Bit rate : 1 479 Kbps
Width : 720 pixels
Height : 304 pixels
Display aspect ratio : 2.35:1
Frame rate : 23.976 fps
Color space : YUV
Chroma subsampling : 4:2:0
Bit depth : 8 bits
Scan type : Progressive
Compression mode : Lossy
Bits/(Pixel*Frame) : 0.282
Stream size : 1.07 GiB (85%)
Writing library : XviD 1.2.1 (UTC 2008-12-04)

Audio
ID : 1
Format : AC-3
Format/Info : Audio Coding 3
Mode extension : CM (complete main)
Codec ID : 2000
Duration : 1h 43mn
Bit rate mode : Constant
Bit rate : 192 Kbps
Channel(s) : 2 channels
Channel positions : Front: L R
Sampling rate : 48.0 KHz
Bit depth : 16 bits
Compression mode : Lossy
Stream size : 142 MiB (11%)
Alignment : Split accross interleaves


Джокер скачать торрент


freetor.icu



Скачать Джокер через торрент https://pic1.kartinco.top/images/111/9mfwdrw9pm.jpg Скачать, смотреть онлайн Джокер бесплантно в хорошем качестве Описание: В 1947 году, когда чертились границы Индии и Пакистана, местечку Паглапур нигде не нашлось места. После одного из боев во время ... 10 10 1
Info! Золотая раздача, скачанное не засчитывается.
Торрент: Зарегистрирован [2012-12-30 10:49] · скачан: 104 раз
Статус: √ проверено
Размер: 1.27 GB
Как cкачать? Как скачать Джокер через торрент | UTorrent

% Раздел Тема Автор DL S | L
Порно фильмы с русским переводом [ 1.47 GB ] Джокер клиника спермы / Joker Die Sperma Klinik [1999 Anal DP Fisting Lingerie Nurse Oral Sex Pissing DVDRip Субтитры] Pir@tya2010 Скачать
2 | 0
Фильмы с авторской озвучкой [ 1.46 GB ] Джокер / Joker [2019 BDRip] [AVO] killermax2013 Скачать
1 | 0
Официальные cаундтреки к зарубежным фильмам [ 399 MB ] OST - Джокер / Joker 2019 / FLAC / lossless / Score bober100 Скачать
1 | 0
Ultra HD (UHD: 2K, 4K, 8K) — видео сверхвысокой чёткости [ 39.62 GB ] Джокер / Joker [2019 UHD BDRip 2160p] [SDR] DUB [] +MVO [HDRezka Studio] + AVO [М. Чадов] bober100 Скачать
3 | 0
Фильмы 2019-2020 [DVDrip, WEB-DLRip, HDrip] (DUB, MVO) [ 1.46 GB ] Джокер / Joker [2019 BDRip] - [] Twi7ter Скачать
10 | 0
Фильмы 2019-2020 [DVDrip, WEB-DLRip, HDrip] (DUB, MVO) [ 2.18 GB ] Джокер / Joker [2019 - [] Twi7ter Скачать
6 | 0
Ultra HD (UHD: 2K, 4K, 8K) — видео сверхвысокой чёткости [ 59.42 GB ] Джокер / Joker [2019 UHD Blu-Ray EUR 2160p] [Dolby Vision] DUB [] bober100 Скачать
3 | 0

28-11-2019 20:33  

Отключить всю рекламу на сайте

    Дорогой пользователь! Огромная просьба, поблагодарите релизера, оцените раздачу и оставьте свои комментарий, если Вы скачали Джокер через торрент бесплатно!
    Комментировать посты могут только пользователи прошедшие не сложную регистрацию
    Показать сообщения:    

    Джокер через торрент
    Скачать бесплатно Джокер
    Джокер скачать торрент
    Джокер смотреть онлайн
    Cкачать фильм Джокер бесплатно
    Джокер скачать торрент в хорошем качестве
    Джокер смотреть онлайн бесплатно в хорошем качестве


    Вы не можете начинать темы
    Вы не можете отвечать на сообщения
    Вы не можете редактировать свои сообщения
    Вы не можете удалять свои сообщения
    Вы не можете голосовать в опросах
    Вы не можете прикреплять файлы к сообщениям
    Вы можете скачивать файлы