1 сезон

3 сезон

iTunes

1

iTunes

DUB Netflix

iTunes

13

1 сезон

RePack

30

Deluxe

pack

Легкие деньги

ВАЖНО

ИГРА 18+

pack

RePack

MK11

RePack

jed

RePack

fifa19

RePack

RDR2

RePack

NEED FOR SPEED™ PAYBACK

4 сезон

9 сезон

Бесстыжие 9 сезон

Все сериалы

все сериалы на PB.wtf

RePack

FAR CRY 5

Anonymous, добрый вечер, мы не успеваем до 1 числа собрать деньги на оплату серверов, помогите нам пожалуйста в это трудное время. В качестве благодарности мы отключим Вам всю рекламу на сайте (укажите свой ник в строку Ваше имя)!

×
  
Magnet ссылка

Опасные пассажиры поезда 123 / The Taking of Pelham 123 (Тони Скотт) [2009 г., боевик, триллер, криминал, BDRip, DUB + DUB] freetor.icu

Опасные пассажиры поезда 123 через торрент freetor.icu

Размер: 1.45 GB | Добавлен: 8 лет 7 мес. назад | Торрент скачан:465 раз
Скачать  

11-11-2012 21:49 Опасные пассажиры поезда 123 Скачать торрент  

Опасные пассажиры поезда 123 / The Taking of Pelham 123

Год выпуска: 2009
Страна: США, Великобритания
Жанр: боевик, триллер, криминал
Продолжительность: 01:45:55
Перевод: Дубляж + Оригинал

Режиссер: Тони Скотт
Продюссер: Стив Тиш, Тодд Блэк, Джейсон Блюменталь
Сценарий: Брайан Хелгеленд, Джон Гоуди

Бюджет: $100 000 000
Премьера в мире: 4 июня 2009




В ролях: Дензел Вашингтон, Джон Траволта, Луис Гузман, Виктор Гойцай, Джон Туртурро, Джеймс Гандольфини, Майкл Рисполи, Рамон Родригез, Сайда Аррика Экулона, Джон Бенжамин Хикки

Описание: Вооруженные террористы захватывают поезд в нью-йоркском метро и требуют выкуп за пассажиров. Но даже если все их требования будут выполнены, много ли у заложников шансов остаться в живых?

Качество: BDRip
Формат: AVI
Видео кодек: XviD
Аудио кодек: AC3
Видео: 720х304 (2,35:1), 23.976 fps, 1557 kbps, 0.297 bit/pixel
Аудио#1: Аудио#1: 48 kHz, AC3 2.0, 192.00 kbps / Дубляж (Русский)
Аудио#2: Аудио#2: 48 kHz, AC3 2.0, 192.00 kbps / Дубляж (Украинский)

&
Общее
Полное имя : E:Фильмы МThe Taking of Pelham 1 2 3 (2009) BDRip (Rus. Ukr).avi
Формат : AVI
Формат/Информация : Audio Video Interleave
Размер файла : 1,45 Гбайт
Продолжительность : 1 ч. 45 м.
Общий поток : 1955 Кбит/сек
Название фильма : Опасные пассажиры поезда 123 / The Taking of Pelham 1 2 3 (2009) BDRip (Rus. Ukr)
Программа кодирования : VirtualDubModRus 1.5.10.2 (build 2542/release)
Библиотека кодирования : VirtualDubMod build 2542/release
Правообладатель : rip by maygli

Видео
Идентификатор : 0
Формат : MPEG-4 Visual
Профиль формата : Advanced [email protected]
Параметр BVOP формата : 1
Параметр QPel формата : Нет
Параметр GMC формата : Без точки перехода
Параметр матрицы формата : Выборочная
Режим смешивания : Сжатый битовый поток
Идентификатор кодека : XVID
Идентификатор кодека/Подсказка : XviD
Продолжительность : 1 ч. 45 м.
Битрейт : 1557 Кбит/сек
Ширина : 720 пикселей
Высота : 304 пикселя
Соотношение сторон : 2,35:1
Частота кадров : 23,976 кадра/сек
Цветовое пространство : YUV
Субдискретизация насыщенности : 4:2:0
Битовая глубина : 8 бит
Тип развёртки : Прогрессивная
Метод сжатия : С потерями
Бит/(Пиксели*Кадры) : 0.297
Размер потока : 1,15 Гбайт (80%)
Библиотека кодирования : XviD 65

Аудио #1
Идентификатор : 1
Формат : AC-3
Формат/Информация : Audio Coding 3
Расширение режима : CM (complete main)
Параметр Endianness формата : Big
Идентификатор кодека : 2000
Продолжительность : 1 ч. 45 м.
Вид битрейта : Постоянный
Битрейт : 192 Кбит/сек
Каналы : 2 канала
Расположение каналов : Front: L R
Частота : 48,0 КГц
Битовая глубина : 16 бит
Метод сжатия : С потерями
Размер потока : 145 Мбайт (10%)
Выравнивание : Разделение по промежуткам
Продолжительность промежутка : 42 мс. (1,00 видеокадр)
Время предзагрузки промежутка : 500 мс.
Заголовок : Дубляж (Русский)

Аудио #2
Идентификатор : 2
Формат : AC-3
Формат/Информация : Audio Coding 3
Расширение режима : CM (complete main)
Параметр Endianness формата : Big
Идентификатор кодека : 2000
Продолжительность : 1 ч. 45 м.
Вид битрейта : Постоянный
Битрейт : 192 Кбит/сек
Каналы : 2 канала
Расположение каналов : Front: L R
Частота : 48,0 КГц
Битовая глубина : 16 бит
Метод сжатия : С потерями
Размер потока : 145 Мбайт (10%)
Выравнивание : Разделение по промежуткам
Продолжительность промежутка : 42 мс. (1,00 видеокадр)
Время предзагрузки промежутка : 500 мс.
Заголовок : Дубляж (Украинский)


Опасные пассажиры поезда 123 скачать торрент


freetor.icu



Скачать Опасные пассажиры поезда 123 через торрент https://pic1.kartinco.top/images/111/qen9d1zf74.jpg Скачать фильм Опасные пассажиры поезда 123 через торрент бесплантно в хорошем качестве Описание: Вооруженные террористы захватывают поезд в нью-йоркском метро и требуют выкуп за пассажиров. Но даже если все их требования будут ... 10 10 2
Info! Золотая раздача, скачанное не засчитывается.
Торрент: Зарегистрирован [2012-11-11 21:49] · скачан: 465 раз
Статус: √ проверено
Размер: 1.45 GB
Как cкачать? Как скачать Опасные пассажиры поезда 123 через торрент | UTorrent

% Раздел Тема Автор DL S | L
Фильмы [HD 720p, 1080p] (Хороший звук DUB, MVO) [ 7.95 GB ] Опасные пассажиры поезда 123 / The Taking of Pelham 1 2 3 [2009 BDRip 720p] DUB AVO potroks Скачать
1 | 0
Фильмы 2009 [ 2.18 GB ] Опасные пассажиры поезда 123 / The Taking of Pelham 1 2 3 [2009 HDRip DUB] PsYcho Скачать
1 | 0
Фильмы [HD 720p, 1080p] (Хороший звук DUB, MVO) [ 10.45 GB ] Опасные пассажиры поезда 123 / The Taking of Pelham 1 2 3 [2009 BDRip 1080p лицензия] Ворон Скачать
1 | 0
Фильмы 2009 [ 1.37 GB ] Опасные пассажиры поезда 123 / The Taking of Pelham 1 2 3 [2009 DVDRip] DEVI Скачать
1 | 0

28-11-2019 20:33  

Отключить всю рекламу на сайте

    Дорогой пользователь! Огромная просьба, поблагодарите релизера, оцените раздачу и оставьте свои комментарий, если Вы скачали Опасные пассажиры поезда 123 через торрент бесплатно! Внесите свою лепту в развитие PiratBit!
    Комментировать посты могут только пользователи прошедшие не сложную регистрацию
    Показать сообщения:    

    Опасные пассажиры поезда 123 через торрент
    Скачать бесплатно Опасные пассажиры поезда 123
    Опасные пассажиры поезда 123 скачать торрент
    Опасные пассажиры поезда 123 смотреть онлайн
    Cкачать фильм Опасные пассажиры поезда 123 бесплатно
    Опасные пассажиры поезда 123 скачать торрент в хорошем качестве
    Опасные пассажиры поезда 123 смотреть онлайн бесплатно в хорошем качестве


    Вы не можете начинать темы
    Вы не можете отвечать на сообщения
    Вы не можете редактировать свои сообщения
    Вы не можете удалять свои сообщения
    Вы не можете голосовать в опросах
    Вы не можете прикреплять файлы к сообщениям
    Вы можете скачивать файлы