>

5.6

iTunes

6.1

MVO

5.7

MVO

1

7.4

1 сезон

6.8

iTunes

7.2

1 сезон

13

6.7

1 сезон

8.3

RePack

30

Deluxe

pack

9.9

Лицензия

ВАЖНО

ИГРА 18+

pack

7.3

RePack

MK11

7.7

RePack

jed

7.8

RePack

fifa19

8.5

RePack

RDR2

RePack

NEED FOR SPEED™ PAYBACK

4 сезон

9 сезон

Бесстыжие 9 сезон

Все сериалы

все сериалы на PB.wtf

RePack

FAR CRY 5

Anonymous, доброе утро, мы катастрофически не успеваем собрать деньги на оплату серверов, помогите нам пожалуйста 5,10,15р., для нас важна любая помощь . В качестве благодарности мы отключим Вам всю рекламу на сайте (укажите свой ник в строку Ваше имя)!

×
  
Magnet ссылка

Побег ради любви / Parugu (Бхаскар) [2008 г., боевик, мелодрама, DVDRip, MVO] freetor.icu

Побег ради любви через торрент freetor.icu

Размер: 2.19 GB | Добавлен: 8 лет 11 мес. назад | Торрент скачан:36 раз
Смотреть онлайн Побег ради любви | Скачать    Ребята, помогите собрать деньги на оплату серверов!!!

17-10-2012 16:41 Побег ради любви Скачать торрент  

Побег ради любви / Parugu

Год выпуска: 2008
Страна: Индия
Жанр: боевик, мелодрама
Продолжительность: 02:45:51
Перевод: Профессиональный многоголосый
Субтитры: Отсутствуют

Режиссер: Бхаскар
Продюссер: Дил Раджу, Лэкшман, Sireesh
Сценарий: Бхаскар, B.V.S. Ravi, Chaitanya Dantuluri

Мировой рейтинг IMDB 7.00 (369)


В ролях: Аллу Арджун, Шила, Пунам Баджва, Пракаш Радж, Jayasudha, Сунил, Сринивас Редди, Chitram Sreenivas, Калпана, Джива

Описание: Нилаканта — это могущественный человек в деревне Рамачандрапурам, который не верит в браки по любви. У него было две дочери. Его старшая дочь Саббалакшми сбежала с парнем по имени Ерра Бабу из старшего класса как раз в ту ночь, когда намечалась ее свадьба. Люди Нилаканта похитили всех друзей Бабу. Кришна — счастливый беззаботный парень из Хидерабада, с ним так же Скрину из Неллора. Кришна влюблен в девушку Мина, которая является младшей дочерью Нилаканта. В остальном это история об одном из двух — как Кришна сбегает с Миной или как убеждает Нилаканту отдать ему дочь в жены.

Качество: DVDRip
Формат: AVI
Видео кодек: XviD
Аудио кодек: AC3
Видео: 720x320 (2.25:1), 23.976 fps, XviD build 50 ~1435 kbps avg, 0.26 bit/pixel
Аудио#1: 48 kHz, AC3 Dolby Digital, 3/2 (L,C,R,l,r) + LFE ch, ~448 kbps

Общее
Полное имя : F:ЗакачкиPobeg.Radi.Lybvi.2008.DVDRip.avi
Формат : AVI
Формат/Информация : Audio Video Interleave
Профиль формата : OpenDML
Размер файла : 2,19 Гбайт
Продолжительность : 2 ч. 45 м.
Общий поток : 1890 Кбит/сек
Программа кодирования : VirtualDubMod 1.5.10.3 | www.virtualdub-fr.org || (build 2550/release)
Библиотека кодирования : VirtualDubMod build 2550/release

Видео
Идентификатор : 0
Формат : MPEG-4 Visual
Профиль формата : Advanced Simple@L5
Параметр BVOP формата : 1
Параметр QPel формата : Нет
Параметр GMC формата : Без точки перехода
Параметр матрицы формата : Default (MPEG)
Идентификатор кодека : XVID
Идентификатор кодека/Подсказка : XviD
Продолжительность : 2 ч. 45 м.
Битрейт : 1430 Кбит/сек
Ширина : 720 пикселей
Высота : 320 пикселей
Соотношение сторон : 2,25:1
Частота кадров : 23,976 кадра/сек
Цветовое пространство : YUV
Субдискретизация насыщенности : 4:2:0
Битовая глубина : 8 бит
Тип развёртки : Прогрессивная
Метод сжатия : С потерями
Бит/(Пиксели*Кадры) : 0.259
Размер потока : 1,66 Гбайт (76%)
Библиотека кодирования : XviD 1.2.1 (UTC 2008-12-04)

Аудио
Идентификатор : 1
Формат : AC-3
Формат/Информация : Audio Coding 3
Расширение режима : CM (complete main)
Идентификатор кодека : 2000
Продолжительность : 2 ч. 45 м.
Вид битрейта : Постоянный
Битрейт : 448 Кбит/сек
Каналы : 6 каналов
Расположение каналов : Front: L C R, Side: L R, LFE
Частота : 48,0 КГц
Битовая глубина : 16 бит
Метод сжатия : С потерями
Размер потока : 531 Мбайт (24%)
Выравнивание : Разделение по промежуткам
Продолжительность промежутка : 42 мс. (1,00 видеокадр)
Время предзагрузки промежутка : 500 ms

freetor.icu



Скачать Побег ради любви через торрент http://i45.fastpic.ru/big/2012/1017/48/d581088cbfa19a9d7017b9bc89f80848.jpg Скачать, смотреть онлайн Побег ради любви бесплантно в хорошем качестве Описание: Нилаканта — это могущественный человек в деревне Рамачандрапурам, который не верит в браки по любви. У него было две дочери. Его ... 10 10 4
Info! Золотая раздача, скачанное не засчитывается.
Торрент: Зарегистрирован [2012-10-17 16:41] · скачан: 36 раз
Статус: √ проверено
Размер: 2.19 GB
Как cкачать? Как скачать Побег ради любви через торрент | UTorrent

28-11-2019 20:33  

Отключить всю рекламу на сайте

27-12-2012 08:05 Побег ради любви Скачать торрент  

такая дурь!!!!!!!!!!!!freetor.icu



    Дорогой пользователь! Огромная просьба, поблагодарите релизера, оцените раздачу и оставьте свои комментарий, если Вы скачали Побег ради любви через торрент бесплатно!
    Комментировать посты могут только пользователи прошедшие не сложную регистрацию
    Показать сообщения:    

    Побег ради любви через торрент
    Скачать бесплатно Побег ради любви
    Побег ради любви скачать торрент
    Побег ради любви смотреть онлайн
    Cкачать фильм Побег ради любви бесплатно
    Побег ради любви скачать торрент в хорошем качестве
    Побег ради любви смотреть онлайн бесплатно в хорошем качестве


    Вы не можете начинать темы
    Вы не можете отвечать на сообщения
    Вы не можете редактировать свои сообщения
    Вы не можете удалять свои сообщения
    Вы не можете голосовать в опросах
    Вы не можете прикреплять файлы к сообщениям
    Вы можете скачивать файлы