>

5.6

iTunes

6.1

MVO

5.7

MVO

1

7.4

1 сезон

6.8

iTunes

7.2

1 сезон

13

6.7

1 сезон

8.3

RePack

30

Deluxe

pack

9.9

Лицензия

ВАЖНО

ИГРА 18+

pack

7.3

RePack

MK11

7.7

RePack

jed

7.8

RePack

fifa19

8.5

RePack

RDR2

RePack

NEED FOR SPEED™ PAYBACK

4 сезон

9 сезон

Бесстыжие 9 сезон

Все сериалы

все сериалы на PB.wtf

RePack

FAR CRY 5

Anonymous, доброй ночи, мы катастрофически не успеваем собрать деньги на оплату серверов, помогите нам пожалуйста 5,10,15р., для нас важна любая помощь . В качестве благодарности мы отключим Вам всю рекламу на сайте (укажите свой ник в строку Ваше имя)!

×
  
Magnet ссылка

Как трудно признаться в любви / Khushi (Сурья C.Дж.,Сунил Кумар Агравал) [2003 г., Боевик, Драма, Мелодрама., DVDRip, MVO] freetor.icu

Как трудно признаться в любви через торрент freetor.icu

Размер: 2 GB | Добавлен: 8 лет 11 мес. назад | Торрент скачан:2 раза
Смотреть онлайн Как трудно признаться в любви | Скачать    Ребята, помогите собрать деньги на оплату серверов!!!

14-10-2012 11:27 Как трудно признаться в любви Скачать торрент  

Как трудно признаться в любви / Khushi

Год выпуска: 2003
Страна: Индия
Жанр: Боевик, Драма, Мелодрама.
Продолжительность: 02:42:45
Перевод: Любительский многоголосый

Режиссер: Сурья C.Дж.,Сунил Кумар Агравал
Продюссер: Бони Капур, Kanwalinder Singh
Сценарий: Аман Джаффери, Bolu Khan, Сурья C.Дж.
Oператор: K.V. Guhan
Kомпозитор: Ану Малик
Xудожник: Шийам Сундер, Сабу Сирил, Мандира Шукла
Mонтаж: Merzin Tavaria

Премьера в мире: 07.02.2003.
Cборы в США: $305 205

для любой зрительской аудитории
IMDb: 4.20 (572)
http://www.kinopoisk.ru/film/64234/

В ролях: Карина Капур, Амитабх Баччан, Амриш Пури, Радхика Чаудхари, Фардин Кхан, Джонни Левер, Мэтт Мур, Навин Нисчол, Шарат Саксена, Ануп Сони, Джита Верма, Радхика Верма.

Описание: Каран и Кхуши знакомятся в Бомбейском университете и сразу же становятся близкими друзьями. Проходит еще немного времени и они уже не могут жить друг без друга.
Но оба очень самолюбивы, часто ссорятся и никак не решаются признаться друг другу в любви. Поэтому и разъезжаются на каникулы, не объяснившись. А дома отец Кхуши, которому она тоже ничего не рассказала про свои чувства, подобрал ей жениха…

Качество: DVDRip
Формат: AVI
Видео кодек: XviD
Аудио кодек: AC3
Видео: MPEG-4 Visual, XVID, 1362 Кбит/сек, 704*304пикселя, 23,976 кадра/сек
Аудио#1: AC-3, 384 Кбит/сек, 6 каналов, 48,0 КГц,





Формат : AVI
Формат/Информация : Audio Video Interleave
Профиль формата : OpenDML
Размер файла : 2,00 Гбайт
Продолжительность : 2 ч. 42 м.
Общий поток : 1755 Кбит/сек
Программа кодирования : VirtualDubMod 1.5.4.1 (build 2178/release)
Библиотека кодирования : VirtualDubMod build 2178/release

Видео
Идентификатор : 0
Формат : MPEG-4 Visual
Профиль формата : Advanced Simple@L5
Параметр BVOP формата : 1
Параметр QPel формата : Нет
Параметр GMC формата : Без точки перехода
Параметр матрицы формата : Выборочная
Идентификатор кодека : XVID
Идентификатор кодека/Подсказка : XviD
Продолжительность : 2 ч. 42 м.
Битрейт : 1362 Кбит/сек
Ширина : 704 пикселя
Высота : 304 пикселя
Соотношение сторон : 2,35:1
Частота кадров : 23,976 кадра/сек
Цветовое пространство : YUV
Субдискретизация насыщенности : 4:2:0
Битовая глубина : 8 бит
Тип развёртки : Прогрессивная
Метод сжатия : С потерями
Бит/(Пиксели*Кадры) : 0.265
Размер потока : 1,55 Гбайт (78%)
Библиотека кодирования : XviD 1.2.0.dev47 (UTC 2006-11-01)

Аудио
Идентификатор : 1
Формат : AC-3
Формат/Информация : Audio Coding 3
Расширение режима : CM (complete main)
Параметр Endianness формата : Big
Идентификатор кодека : 2000
Продолжительность : 2 ч. 42 м.
Вид битрейта : Постоянный
Битрейт : 384 Кбит/сек
Каналы : 6 каналов
Расположение каналов : Front: L C R, Side: L R, LFE
Частота : 48,0 КГц
Битовая глубина : 16 бит
Метод сжатия : С потерями
Размер потока : 447 Мбайт (22%)
Выравнивание : Разделение по промежуткам
Продолжительность промежутка : 96 мс. (2,30 видеокадра)
Время предзагрузки промежутка : 96 мс.

freetor.icu



Скачать Как трудно признаться в любви через торрент https://pic1.kartinco.top/images/111/pvcep3qzxy.jpg Скачать, смотреть онлайн Как трудно признаться в любви бесплантно в хорошем качестве Описание: Каран и Кхуши знакомятся в Бомбейском университете и сразу же становятся близкими друзьями. Проходит еще немного времени и они ... 10 10 2
Info! Золотая раздача, скачанное не засчитывается.
Торрент: Зарегистрирован [2012-10-14 11:27] · скачан: 2 раз
Статус: √ проверено
Размер: 2 GB
Как cкачать? Как скачать Как трудно признаться в любви через торрент | UTorrent

28-11-2019 20:33  

Отключить всю рекламу на сайте

    Дорогой пользователь! Огромная просьба, поблагодарите релизера, оцените раздачу и оставьте свои комментарий, если Вы скачали Как трудно признаться в любви через торрент бесплатно!
    Комментировать посты могут только пользователи прошедшие не сложную регистрацию
    Показать сообщения:    

    Как трудно признаться в любви через торрент
    Скачать бесплатно Как трудно признаться в любви
    Как трудно признаться в любви скачать торрент
    Как трудно признаться в любви смотреть онлайн
    Cкачать фильм Как трудно признаться в любви бесплатно
    Как трудно признаться в любви скачать торрент в хорошем качестве
    Как трудно признаться в любви смотреть онлайн бесплатно в хорошем качестве


    Вы не можете начинать темы
    Вы не можете отвечать на сообщения
    Вы не можете редактировать свои сообщения
    Вы не можете удалять свои сообщения
    Вы не можете голосовать в опросах
    Вы не можете прикреплять файлы к сообщениям
    Вы можете скачивать файлы