>

5.6

iTunes

6.1

MVO

5.7

MVO

1

7.4

1 сезон

6.8

iTunes

7.2

1 сезон

13

6.7

1 сезон

8.3

RePack

30

Deluxe

pack

9.9

Лицензия

ВАЖНО

ИГРА 18+

pack

7.3

RePack

MK11

7.7

RePack

jed

7.8

RePack

fifa19

8.5

RePack

RDR2

RePack

NEED FOR SPEED™ PAYBACK

4 сезон

9 сезон

Бесстыжие 9 сезон

Все сериалы

все сериалы на PB.wtf

RePack

FAR CRY 5

Anonymous, добрый день, мы катастрофически не успеваем собрать деньги на оплату серверов, помогите нам пожалуйста 5,10,15р., для нас важна любая помощь . В качестве благодарности мы отключим Вам всю рекламу на сайте (укажите свой ник в строку Ваше имя)!

×
  
Magnet ссылка

Мститель / Вarood (Прамод Чакраворти) [1976 г., боевик, триллер, мелодрама, криминал, VHSRip, DUB, лицензия] freetor.icu

Мститель через торрент freetor.icu

Размер: 1.13 GB | Добавлен: 8 лет 11 мес. назад | Торрент скачан:9 раз
Смотреть онлайн Мститель | Скачать    Ребята, помогите собрать деньги на оплату серверов!!!

10-10-2012 15:13 Мститель Скачать торрент  

Мститель / Вarood

Год выпуска: 1976
Страна: JUGNU Enterprises, Индия
Жанр: боевик, триллер, мелодрама, криминал
Продолжительность: 02:00:27
Перевод: Дубляж, Лицензия
Размер: 1.13 ГБ

Режиссер: Прамод Чакраворти
Продюссер: Дж.С. Бхагат, Х.С. Бхаттачария, Jitu Thakar
Сценарий: Эхсан Ризви, Сачин Бхоумик
Оператор: В.К. Мурти
Kомпозитор: Сачин Дев Бурман
Xудожник: Шанти Дасс
Mонтаж: Нарендра Арора

IMDb: 4.80 (16)
http://www.kinopoisk.ru/film/224858/

В ролях: Риши Капур, Рина Рой, Шома Ананд, Ашок Кумар, Прем Чопра, Мадан Пури, Дэвид Абрахам, Г. Асрани, Суджит Кумар, Шрирам Лагу, Радж Мехра, Раджу Шреста, Хема Малини, Раджендра Нат, Асит Сен, Ом Шивпури

Описание: На глазах у шестилетнего мальчика бандиты убивают его отца. Оказывается полицейский инспектор Саксена разоблачил банду контрабандистов и бандиты отомстили ему. Навсегда запомнил лица убийц маленький Ануп Саксена. Прошло 14 лет. Мысль о мести не покидала Анупа. Он разыскал убийц. Из четверых убиты уже трое. Остается четвертый — главарь банды Бакши. Ануп похищает его дочь Симу. Но Ануп и Сима полюбили друг друга. Теперь Бакши не только враг, но и отец любимой. Ануп в смятении…

Доп. информация: Фильм дублирован на киностудии им. А. Довженко, 1978 г. Режиссер дубляжа - И. Левченко. Риши Капура дублировал - Виталий Дорошенко, Валентина Гришокина, Николай Рушковский, Александр Райданов, Сергей Свечников. Большущий был хит - наверное после фильмов "Месть и закон" и до "Танцор Диско" - самый кассовый из индийских фильмов в СССР - это римейк испанского боевика, очень нетипичен для индийского кино -несколько песен кажутся просто вставными номерами, очень динамичное действие (особенно первый час), одним словом - хорошо смотрелся. Копии оставались в кинопрокатных конторах еще в середине 80-х, но состояние было ужасное.

Качество: VHSRip
Формат: AVI
Видео кодек: DivX
Аудио кодек: MP3
Видео: MPEG-4 Visual, DivX 5, 1200 Кбит/сек, 25,000 кадров/сек, 704x576
Аудио#1: MPEG Audio, MP3 , 128 Кбит/сек, 2канала, 48,0 КГц





Формат : AVI
Формат/Информация : Audio Video Interleave
Размер файла : 1,13 Гбайт
Продолжительность : 2 ч. 0 м.
Общий поток : 1341 Кбит/сек
Программа кодирования : Lavf51.12.1
Библиотека кодирования : VirtualDub build 30009/release

Видео
Идентификатор : 0
Формат : MPEG-4 Visual
Профиль формата : Simple@L1
Параметр BVOP формата : Нет
Параметр QPel формата : Нет
Параметр GMC формата : Без точки перехода
Параметр матрицы формата : Default (H.263)
Идентификатор кодека : DX50
Идентификатор кодека/Подсказка : DivX 5
Продолжительность : 2 ч. 0 м.
Битрейт : 1200 Кбит/сек
Ширина : 704 пикселя
Высота : 576 пикселей
Соотношение сторон : 1,222
Частота кадров : 25,000 кадров/сек
Стандарт вещания : PAL
Цветовое пространство : YUV
Субдискретизация насыщенности : 4:2:0
Битовая глубина : 8 бит
Тип развёртки : Прогрессивная
Метод сжатия : С потерями
Бит/(Пиксели*Кадры) : 0.118
Размер потока : 1,01 Гбайт (89%)
Библиотека кодирования : Lavc51.40.4

Аудио
Идентификатор : 1
Формат : MPEG Audio
Версия формата : Version 1
Профиль формата : Layer 3
Режим : Joint stereo
Расширение режима : MS Stereo
Идентификатор кодека : 55
Идентификатор кодека/Подсказка : MP3
Продолжительность : 2 ч. 0 м.
Вид битрейта : Постоянный
Битрейт : 128 Кбит/сек
Каналы : 2 канала
Частота : 48,0 КГц
Метод сжатия : С потерями
Размер потока : 110 Мбайт (10%)
Выравнивание : Соединение по промежуткам
Продолжительность промежутка : 24 мс. (0,60 видеокадр)
Время предзагрузки промежутка : 504 мс.

freetor.icu



Скачать Мститель через торрент http://s005.radikal.ru/i212/1210/77/4539723e0abe.jpg Скачать, смотреть онлайн Мститель бесплантно в хорошем качестве Описание: На глазах у шестилетнего мальчика бандиты убивают его отца. Оказывается полицейский инспектор Саксена разоблачил банду ... 10 10 2
Info! Золотая раздача, скачанное не засчитывается.
Торрент: Зарегистрирован [2012-10-10 15:13] · скачан: 9 раз
Статус: √ проверено
Размер: 1.13 GB
Как cкачать? Как скачать Мститель через торрент | UTorrent



Последний раз редактировалось: lexxus350 (2012-10-11 02:18), всего редактировалось 4 раз(а)

28-11-2019 20:33  

Отключить всю рекламу на сайте

10-10-2012 16:09 Мститель Скачать торрент  

14.2 Скриншоты должны соответствовать размеру кадра раздаваемого видео файла,

Видео кодек DivX

Исправляйfreetor.icu



    Дорогой пользователь! Огромная просьба, поблагодарите релизера, оцените раздачу и оставьте свои комментарий, если Вы скачали Мститель через торрент бесплатно!
    Комментировать посты могут только пользователи прошедшие не сложную регистрацию
    Показать сообщения:    

    Мститель через торрент
    Скачать бесплатно Мститель
    Мститель скачать торрент
    Мститель смотреть онлайн
    Cкачать фильм Мститель бесплатно
    Мститель скачать торрент в хорошем качестве
    Мститель смотреть онлайн бесплатно в хорошем качестве


    Вы не можете начинать темы
    Вы не можете отвечать на сообщения
    Вы не можете редактировать свои сообщения
    Вы не можете удалять свои сообщения
    Вы не можете голосовать в опросах
    Вы не можете прикреплять файлы к сообщениям
    Вы можете скачивать файлы