>

5.6

iTunes

6.1

MVO

5.7

MVO

1

7.4

1 сезон

6.8

iTunes

7.2

1 сезон

13

6.7

1 сезон

8.3

RePack

30

Deluxe

pack

9.9

Лицензия

ВАЖНО

ИГРА 18+

pack

7.3

RePack

MK11

7.7

RePack

jed

7.8

RePack

fifa19

8.5

RePack

RDR2

RePack

NEED FOR SPEED™ PAYBACK

4 сезон

9 сезон

Бесстыжие 9 сезон

Все сериалы

все сериалы на PB.wtf

RePack

FAR CRY 5

Anonymous, добрый день, мы катастрофически не успеваем собрать деньги на оплату серверов, помогите нам пожалуйста 5,10,15р., для нас важна любая помощь . В качестве благодарности мы отключим Вам всю рекламу на сайте (укажите свой ник в строку Ваше имя)!

×
  
Magnet ссылка

Пароль - любовь / Золушка / Aashiqui.in (Шанкхадип) [2011 г., Романтика, мелодрама, драма, IPTVRip, MVO,закадровый ] freetor.icu

Пароль - любовь через торрент freetor.icu

Размер: 1.51 GB | Добавлен: 8 лет 11 мес. назад | Торрент скачан:89 раз
Смотреть онлайн Пароль - любовь | Скачать    Ребята, помогите собрать деньги на оплату серверов!!!

22-09-2012 20:01 Пароль - любовь Скачать торрент  


Пароль - любовь / Золушка / Aashiqui.in
Год выпуска: 2011
Страна: Индия
Жанр: Романтика, мелодрама, драма
Продолжительность: 01:44:23
Перевод: Профессиональный многоголосый, закадровый

Режиссер: Шанкхадип

В ролях: Анкита, Дхирадж, Ишан Манхас, Прити, Шубхи

Описание: Сайрус и Эйприл случайно встречаются в Интернете и начинают общаться, чувствуя взаимное притяжение. Эйприл, индийская Золушка, живёт с мачехой и сводными сёстрами, которые после смерти её родного отца стали обращаться с ней как со служанкой. Она учится в колледже и чтобы иметь карманные деньги работает неполный рабочий день. Сайрус тоже учится в колледже, увлекается плаванием, мечтает стать писателем, но скрывает свою мечту от отца, желающего видеть сына чемпионом по плаванию. Молодые люди мило общались, никогда при этом не раскрывая свою индивидуальность, но затем терпению пришёл конец и они договорились встретиться. Как-то получилось так, что Сайрус не смог также хорошо понять и оценить личность Эйприл, как она его. Эйприл считает, что он слишком хорош для нее, и избегает встреч с ним из страха быть отвергнутой, в то время как Сайрус ищет ее повсюду, единственную, кто смог понять его как друга и как любимого… Сможет Сайрус принять Эйприл такой, какая есть она в действительности? Найдет ли Эйприл в себе мужество быть собой и начать жить своей жизнью?
Доп. информация:

Качество: IPTVRip
Формат: AVI
Видео кодек: XviD
Аудио кодек: MP3
Видео: 720x304 (2.37:1), 20 fps, XviD build 50 ~1872 kbps avg, 0.43 bit/pixe
Аудио#1: 48 kHz, MPEG Layer 3, 2 ch, ~192.00 kbps avg


Video #0
ID : 0
Format : MPEG-4 Visual
Format profile : Advanced Simple@L5
Format settings, BVOP : 1
Format settings, QPel : No
Format settings, GMC : No warppoints
Format settings, Matrix : Default (H.263)
Codec ID : XVID
Codec ID/Hint : XviD
Duration : 1h 44mn
Bit rate : 1 873 Kbps
Width : 720 pixels
Height : 304 pixels
Display aspect ratio : 2.35:1
Frame rate : 20.000 fps
Color space : YUV
Chroma subsampling : 4:2:0
Bit depth : 8 bits
Scan type : Progressive
Compression mode : Lossy
Bits/(Pixel*Frame) : 0.428
Stream size : 1.37 GiB (90%)
Writing library : XviD 1.2.1 (UTC 2008-12-04)
Audio #1
ID : 1
Format : MPEG Audio
Format version : Version 1
Format profile : Layer 3
Codec ID : 55
Codec ID/Hint : MP3
Duration : 1h 44mn
Bit rate mode : Constant
Bit rate : 192 Kbps
Channel(s) : 2 channels
Sampling rate : 48.0 KHz
Compression mode : Lossy
Stream size : 143 MiB (9%)
Alignment : Aligned on interleaves
Interleave, duration : 50 ms (1.00 video frame)
Interleave, preload duration : 504 ms
Writing library : LAME3.98r
Encoding settings : -m s -V 4 -q 2 -lowpass 18.6 -b 192

freetor.icu



Скачать Пароль - любовь через торрент http://2.firepic.org/2/images/2012-09/22/r81hcaghmz36.jpg Скачать, смотреть онлайн Пароль - любовь бесплантно в хорошем качестве Описание: Сайрус и Эйприл случайно встречаются в Интернете и начинают общаться, чувствуя взаимное притяжение. Эйприл, индийская Золушка, ... 10 10 3
Info! Золотая раздача, скачанное не засчитывается.
Торрент: Зарегистрирован [2012-09-22 20:01] · скачан: 89 раз
Статус: √ проверено
Размер: 1.51 GB
Как cкачать? Как скачать Пароль - любовь через торрент | UTorrent

28-11-2019 20:33  

Отключить всю рекламу на сайте

    Дорогой пользователь! Огромная просьба, поблагодарите релизера, оцените раздачу и оставьте свои комментарий, если Вы скачали Пароль - любовь через торрент бесплатно!
    Комментировать посты могут только пользователи прошедшие не сложную регистрацию
    Показать сообщения:    

    Пароль - любовь через торрент
    Скачать бесплатно Пароль - любовь
    Пароль - любовь скачать торрент
    Пароль - любовь смотреть онлайн
    Cкачать фильм Пароль - любовь бесплатно
    Пароль - любовь скачать торрент в хорошем качестве
    Пароль - любовь смотреть онлайн бесплатно в хорошем качестве


    Вы не можете начинать темы
    Вы не можете отвечать на сообщения
    Вы не можете редактировать свои сообщения
    Вы не можете удалять свои сообщения
    Вы не можете голосовать в опросах
    Вы не можете прикреплять файлы к сообщениям
    Вы можете скачивать файлы