>

8.4

Хороший звук

6.1

MVO

6.4

Line & MVO

1

7.4

1 сезон

6.8

iTunes

7.2

1 сезон

13

6.7

1 сезон

8.3

RePack

30

Deluxe

pack

9.9

Лицензия

ВАЖНО

ИГРА 18+

pack

7.3

RePack

MK11

7.7

RePack

jed

7.8

RePack

fifa19

8.5

RePack

RDR2

RePack

NEED FOR SPEED™ PAYBACK

4 сезон

9 сезон

Бесстыжие 9 сезон

Все сериалы

все сериалы на PB.wtf

RePack

FAR CRY 5

Anonymous, доброе утро, мы катастрофически не успеваем собрать деньги на оплату серверов, помогите нам пожалуйста 5,10,15р., для нас важна любая помощь . В качестве благодарности мы отключим Вам всю рекламу на сайте (укажите свой ник в строку Ваше имя)!

×
  
Magnet ссылка

Бизнесмен / Business Man (Пури Джаганнатх) [2012 г., боевик, триллер, комедия, криминал, HDRip, VO[zamez]] freetor.icu

Бизнесмен через торрент freetor.icu

Размер: 2.18 GB | Добавлен: 9 лет назад | Торрент скачан:86 раз
Смотреть онлайн Бизнесмен | Скачать    Ребята, помогите собрать деньги на оплату серверов!!!

19-08-2012 19:33 Бизнесмен Скачать торрент  

Бизнесмен / Business Man

Год выпуска: 2012
Страна: Индия
Жанр: боевик, триллер, комедия, криминал
Продолжительность: 02:11:19
Перевод: Любительский (одноголосый)[zamez]

Режиссер: Пури Джаганнатх

В ролях: Махеш Бабу, Каджал, Пракаш Радж, Аеша Шива, Саяджи Шинде, Раза Мурад, Джахангир Кхан, Др. Бхарат Редди

Описание: Комиссар полиции Мумбаи Аджай Бхарадвадж на пресс-конференции рапортует, что с организованной преступностью в городе покончено. Но в тот же день на мумбайском вокзале с поезда сходит Виджай Сурья. Он один, он безоружен, он чужак, и у него нет ни рупии в кармане. Но его цель — стать новым криминальным авторитетом и более того — легализовать мафию. А для этого нужно обойти единственное серьёзное препятствие — комиссара Бхарадваджа.

Качество: HDRip
Формат: AVI
Видео кодек: XviD
Аудио кодек: MP3
Видео: 720x304, 24.000 fps, XviD MPEG-4 ~2046 kbps avg, 0.39 bit/pixel
Аудио#1: 48 kHz, MPEG Layer 3, 2 ch, ~320.00 kbps avg





Общее
Полное имя : D:\Торенты\Businessman.2012.HDRip.avi
Формат : AVI
Формат/Информация : Audio Video Interleave
Профиль формата : OpenDML
Размер файла : 2,18 Гбайт
Продолжительность : 2 ч. 11 м.
Общий поток : 2378 Кбит/сек
Программа кодирования : VirtualDubMod 1.5.10.3 | www.virtualdub-fr.org || (build 2550/release)
Библиотека кодирования : VirtualDubMod build 2550/release

Видео
Идентификатор : 0
Формат : MPEG-4 Visual
Профиль формата : Advanced Simple@L5
Параметр BVOP формата : 2
Параметр QPel формата : Нет
Параметр GMC формата : Без точки перехода
Параметр матрицы формата : Default (MPEG)
Режим смешивания : Сжатый битовый поток
Идентификатор кодека : XVID
Идентификатор кодека/Подсказка : XviD
Продолжительность : 2 ч. 11 м.
Битрейт : 2046 Кбит/сек
Ширина : 720 пикселей
Высота : 304 пикселя
Соотношение сторон : 2,35:1
Частота кадров : 24,000 кадра/сек
Цветовое пространство : YUV
Субдискретизация насыщенности : 4:2:0
Битовая глубина : 8 бит
Тип развёртки : Прогрессивная
Метод сжатия : С потерями
Бит/(Пиксели*Кадры) : 0.390
Размер потока : 1,88 Гбайт (86%)
Библиотека кодирования : XviD 1.2.1 (UTC 2008-12-04)

Аудио
Идентификатор : 1
Формат : MPEG Audio
Версия формата : Version 1
Профиль формата : Layer 3
Идентификатор кодека : 55
Идентификатор кодека/Подсказка : MP3
Продолжительность : 2 ч. 11 м.
Вид битрейта : Постоянный
Битрейт : 320 Кбит/сек
Каналы : 2 канала
Частота : 48,0 КГц
Метод сжатия : С потерями
Размер потока : 301 Мбайт (13%)
Выравнивание : Соединение по промежуткам
Продолжительность промежутка : 42 мс. (1,00 видеокадр)
Время предзагрузки промежутка : 504 мс.

freetor.icu



Скачать Бизнесмен через торрент http://i42.fastpic.ru/big/2012/0820/83/e4ec6e4dcfc0f976787f0fadd613f183.png Скачать, смотреть онлайн Бизнесмен бесплантно в хорошем качестве Описание: Комиссар полиции Мумбаи Аджай Бхарадвадж на пресс-конференции рапортует, что с организованной преступностью в городе покончено. ... 10 10 6
Info! Золотая раздача, скачанное не засчитывается.
Торрент: Зарегистрирован [2012-08-19 19:33] · скачан: 86 раз
Статус: T временная
Размер: 2.18 GB
Как cкачать? Как скачать Бизнесмен через торрент | UTorrent



Последний раз редактировалось: Ворон (2012-08-19 20:50), всего редактировалось 1 раз

28-11-2019 20:33  

Отключить всю рекламу на сайте

    Дорогой пользователь! Огромная просьба, поблагодарите релизера, оцените раздачу и оставьте свои комментарий, если Вы скачали Бизнесмен через торрент бесплатно!
    Комментировать посты могут только пользователи прошедшие не сложную регистрацию
    Показать сообщения:    

    Бизнесмен через торрент
    Скачать бесплатно Бизнесмен
    Бизнесмен скачать торрент
    Бизнесмен смотреть онлайн
    Cкачать фильм Бизнесмен бесплатно
    Бизнесмен скачать торрент в хорошем качестве
    Бизнесмен смотреть онлайн бесплатно в хорошем качестве


    Вы не можете начинать темы
    Вы не можете отвечать на сообщения
    Вы не можете редактировать свои сообщения
    Вы не можете удалять свои сообщения
    Вы не можете голосовать в опросах
    Вы не можете прикреплять файлы к сообщениям
    Вы можете скачивать файлы