>

8.4

Хороший звук

6.1

MVO

6.4

Line & MVO

1

7.4

1 сезон

6.8

iTunes

7.2

1 сезон

13

6.7

1 сезон

8.3

RePack

30

Deluxe

pack

9.9

Лицензия

ВАЖНО

ИГРА 18+

pack

7.3

RePack

MK11

7.7

RePack

jed

7.8

RePack

fifa19

8.5

RePack

RDR2

RePack

NEED FOR SPEED™ PAYBACK

4 сезон

9 сезон

Бесстыжие 9 сезон

Все сериалы

все сериалы на PB.wtf

RePack

FAR CRY 5

Anonymous, доброе утро, мы катастрофически не успеваем собрать деньги на оплату серверов, помогите нам пожалуйста 5,10,15р., для нас важна любая помощь . В качестве благодарности мы отключим Вам всю рекламу на сайте (укажите свой ник в строку Ваше имя)!

×
  
Magnet ссылка

Полный дом 2 / Housefull 2 (Саджид Кхан) [2012 г., Мелодрама, Комедия, BDRip, Профессиональный (многоголосый)] freetor.icu

Полный дом 2 через торрент freetor.icu

Размер: 7.06 GB | Добавлен: 9 лет 1 мес. назад | Торрент скачан:30 раз
Смотреть онлайн Полный дом 2 | Скачать    Ребята, помогите собрать деньги на оплату серверов!!!

16-08-2012 15:00 Полный дом 2 Скачать торрент  

Полный дом 2 / Housefull 2

Год выпуска: 2012
Страна: Индия
Жанр: Мелодрама, Комедия
Продолжительность: 02:39:40
Перевод: Профессиональный (многоголосый)
Режиссер: Саджид Кхан
В ролях: Акшай Кумар, Асин, Джон Абрахам, Жаклин Фернандес, Шреяс Талпаде, Шазан Падамси, Ритеш Дешмукх, Зарин Кхан, Риши Капур, Рандхир Капур

Описание: Это история четырех отцов, четырех дочерей и четырех претендентов стать зятьями и, как предполагает вторая половина названия, они все и являются грязной дюжиной. Каждый из этих отцов хочет, чтобы его дочь вышла замуж за самого богатого наследника. Каждая дочь думает, что она выходит замуж за сына самого богатого человека. Каждый сын притворяется самым богатым наследником. Тем не менее, все эти люди терпеть не могут друг друга, но все они находятся под одной крышей, в одном доме.

Качество: BDRip
Формат: MKV
Видео кодек: AVC
Аудио кодек: AC3
Видео: MPEG4 Video (H264), 1280x544, 24.00 fps, ~ 4373 Kbp/s
Аудио#1: Russian ~ Dolby AC3, 48000 Hz, 6ch, 448 Kbp/s
Аудио#2: Hindi ~ DTS, 48000 Hz, 6ch, 1510 Kbp/s
Субтитры: Русские, Английские

Формат : Matroska
Версия формата : Version 2
Размер файла : 7,06 Гбайт
Продолжительность : 2 ч. 39 м.
Режим общего битрейта : Переменный
Общий поток : 6332 Кбит/сек
Название фильма : Housefull 2 (2012)
Дата кодирования : UTC 2012-08-15 10:23:33
Программа кодирования : mkvmerge v5.6.0 ('Kenya Kane') built on Jun 29 2012 15:01:44
Библиотека кодирования : libebml v1.2.3 + libmatroska v1.3.0

Видео
Идентификатор : 1
Формат : AVC
Формат/Информация : Advanced Video Codec
Профиль формата : High@L4.1
Параметр CABAC формата : Да
Параметр ReFrames формата : 5 кадров
Идентификатор кодека : V_MPEG4/ISO/AVC
Продолжительность : 2 ч. 39 м.
Вид битрейта : Переменный
Битрейт : 4373 Кбит/сек
Максимальный битрейт : 40,0 Мбит/сек
Ширина : 1280 пикселей
Высота : 544 пикселя
Соотношение сторон : 2,35:1
Частота кадров : 24,000 кадра/сек
Цветовое пространство : YUV
Субдискретизация насыщенности : 4:2:0
Битовая глубина : 8 бит
Тип развёртки : Прогрессивная
Бит/(Пиксели*Кадры) : 0.262
Размер потока : 4,74 Гбайт (67%)
Заголовок : Housefull 2 (2012)
Библиотека кодирования : x264 core 125 r2200 999b753
Настройки программы : cabac=1 / ref=5 / deblock=1:-1:-1 / analyse=0x3:0x113 / me=umh / subme=8 / psy=1 / psy_rd=1.00:0.00 / mixed_ref=1 / me_range=16 / chroma_me=1 / trellis=2 / 8x8dct=1 / cqm=0 / deadzone=21,11 / fast_pskip=1 / chroma_qp_offset=-2 / threads=3 / lookahead_threads=1 / sliced_threads=0 / nr=0 / decimate=1 / interlaced=0 / bluray_compat=0 / constrained_intra=0 / bframes=3 / b_pyramid=2 / b_adapt=2 / b_bias=0 / direct=3 / weightb=1 / open_gop=0 / weightp=2 / keyint=23 / keyint_min=1 / scenecut=40 / intra_refresh=0 / rc_lookahead=23 / rc=2pass / mbtree=1 / bitrate=4373 / ratetol=1.0 / qcomp=0.50 / qpmin=10 / qpmax=51 / qpstep=4 / cplxblur=20.0 / qblur=0.5 / vbv_maxrate=40000 / vbv_bufsize=30000 / nal_hrd=vbr / ip_ratio=1.10 / aq=1:1.00
Язык : English
Default : Да
Forced : Нет

Аудио #1
Идентификатор : 2
Формат : AC-3
Формат/Информация : Audio Coding 3
Расширение режима : CM (complete main)
Идентификатор кодека : A_AC3
Продолжительность : 2 ч. 39 м.
Вид битрейта : Постоянный
Битрейт : 448 Кбит/сек
Каналы : 6 каналов
Расположение каналов : Front: L C R, Side: L R, LFE
Частота : 48,0 КГц
Битовая глубина : 16 бит
Метод сжатия : С потерями
Размер потока : 512 Мбайт (7%)
Заголовок : RUS MVO
Язык : Russian
Default : Да
Forced : Нет

Аудио #2
Идентификатор : 3
Формат : DTS
Формат/Информация : Digital Theater Systems
Идентификатор кодека : A_DTS
Продолжительность : 2 ч. 39 м.
Вид битрейта : Постоянный
Битрейт : 1510 Кбит/сек
Каналы : 6 каналов
Расположение каналов : Front: L C R, Side: L R, LFE
Частота : 48,0 КГц
Битовая глубина : 24 бит
Метод сжатия : С потерями
Размер потока : 1,68 Гбайт (24%)
Заголовок : 5.1 DTS 1510
Язык : Hindi
Default : Нет
Forced : Нет

Текст #1
Идентификатор : 4
Формат : UTF-8
Идентификатор кодека : S_TEXT/UTF8
Идентификатор кодека/Информация : UTF-8 Plain Text
Заголовок : full
Язык : Russian
Default : Да
Forced : Нет

Текст #2
Идентификатор : 5
Формат : UTF-8
Идентификатор кодека : S_TEXT/UTF8
Идентификатор кодека/Информация : UTF-8 Plain Text
Язык : Russian
Default : Нет
Forced : Нет

Текст #3
Идентификатор : 6
Формат : UTF-8
Идентификатор кодека : S_TEXT/UTF8
Идентификатор кодека/Информация : UTF-8 Plain Text
Язык : English
Default : Нет
Forced : Нет




freetor.icu



Скачать Полный дом 2 через торрент http://i40.fastpic.ru/big/2012/0816/d2/8838648fe0c39214b5247b9802c807d2.png Скачать, смотреть онлайн Полный дом 2 бесплантно в хорошем качестве Описание: Это история четырех отцов, четырех дочерей и четырех претендентов стать зятьями и, как предполагает вторая половина названия, они ... 10 10 3
Info! Золотая раздача, скачанное не засчитывается.
Торрент: Зарегистрирован [2012-08-16 15:00] · скачан: 30 раз
Статус: √ проверено
Размер: 7.06 GB
Как cкачать? Как скачать Полный дом 2 через торрент | UTorrent



Последний раз редактировалось: XLASER (2012-08-16 16:17), всего редактировалось 1 раз

28-11-2019 20:33  

Отключить всю рекламу на сайте

16-08-2012 15:23 Полный дом 2 Скачать торрент  

XLASER
Выложите полное MediaInfo.
freetor.icu



    Дорогой пользователь! Огромная просьба, поблагодарите релизера, оцените раздачу и оставьте свои комментарий, если Вы скачали Полный дом 2 через торрент бесплатно!
    Комментировать посты могут только пользователи прошедшие не сложную регистрацию
    Показать сообщения:    

    Полный дом 2 через торрент
    Скачать бесплатно Полный дом 2
    Полный дом 2 скачать торрент
    Полный дом 2 смотреть онлайн
    Cкачать фильм Полный дом 2 бесплатно
    Полный дом 2 скачать торрент в хорошем качестве
    Полный дом 2 смотреть онлайн бесплатно в хорошем качестве


    Вы не можете начинать темы
    Вы не можете отвечать на сообщения
    Вы не можете редактировать свои сообщения
    Вы не можете удалять свои сообщения
    Вы не можете голосовать в опросах
    Вы не можете прикреплять файлы к сообщениям
    Вы можете скачивать файлы