>

5.6

iTunes

6.1

MVO

5.7

MVO

1

7.4

1 сезон

6.8

iTunes

7.2

1 сезон

13

6.7

1 сезон

8.3

RePack

30

Deluxe

pack

9.9

Лицензия

ВАЖНО

ИГРА 18+

pack

7.3

RePack

MK11

7.7

RePack

jed

7.8

RePack

fifa19

8.5

RePack

RDR2

RePack

NEED FOR SPEED™ PAYBACK

4 сезон

9 сезон

Бесстыжие 9 сезон

Все сериалы

все сериалы на PB.wtf

RePack

FAR CRY 5

Anonymous, добрый вечер, мы катастрофически не успеваем собрать деньги на оплату серверов, помогите нам пожалуйста 5,10,15р., для нас важна любая помощь . В качестве благодарности мы отключим Вам всю рекламу на сайте (укажите свой ник в строку Ваше имя)!

×
  
Magnet ссылка

Агент Винод / Agent Vinod (Шрирам Рагхаван) [2012 г., Боевик, DVDRip, Любительский (многоголосый)] freetor.icu

Агент Винод через торрент freetor.icu

Размер: 1.95 GB | Добавлен: 9 лет 3 мес. назад | Торрент скачан:112 раз
Смотреть онлайн Агент Винод | Скачать    Ребята, помогите собрать деньги на оплату серверов!!!

29-05-2012 10:58 Агент Винод Скачать торрент  

Агент Винод / Agent Vinod
Год выпуска: 2012
Страна: Индия
Жанр: Боевик
Продолжительность: 2:36:24
Перевод: Любительский (многоголосый) + Оригинал
Режиссер: Шрирам Рагхаван
Продюссер: Саиф Али Кхан, Динеш Виджан, Сунил Лула
Бюджет: $698 210

IMDB:
5.20 (1 968)

В ролях: Карина Капур, Саиф Али Кхан, Мариам Закария, Гульшан Гровер, Malika Haydon, Адиль Хуссэйн, Прем Чопра, Рэм Капур, Василиса Петина, Рави Кишан
Описание: Самое страшное наследие Холодной войны – ядерное оружие. Тайные службы всего мира делают все возможное, чтобы оно не попало в руки террористам. В Москве находят труп генерала КГБ, который мог владеть портативным ядерным устройством и встает вопрос, если бомба была у него, то кто владеет ею теперь. Винод – тайный агент на службе Индийского правительства, выполняющий секретные операции по всему миру. В России погибает его напарник и друг, успев перед смертью сообщить про таинственный объект «242». Винод отправляется в Россию, чтобы расследовать причины его гибели. Он не догадывается, что ему придется исколесить пол мира, чтобы добраться до истины.
Доп. информация:
Озвучивание: хамстер, alex white & irene black & mallika
Качество: DVDRip
Формат: AVI
Видео кодек: XviD
Аудио кодек: AC3
Видео: Xvid 672x288 23.98fps 877kbps
Аудио#1: Dolby AC3 48000Hz 6ch 448kbps
Аудио#2: Dolby AC3 48000Hz 6ch 448kbps
Релиз от: IndianCinemaGroup





General
Format : AVI
Format/Info : Audio Video Interleave
File size : 1.95 GiB
Duration : 2h 36mn
Overall bit rate : 1 787 Kbps
Writing application : VirtualDubModRus 1.5.10.2 (build 2542/release)
Writing library : VirtualDubMod build 2542/release

Video
ID : 0
Format : MPEG-4 Visual
Format profile : Advanced Simple@L5
Format settings, BVOP : Yes
Format settings, QPel : No
Format settings, GMC : No warppoints
Format settings, Matrix : Custom
Codec ID : XVID
Codec ID/Hint : XviD
Duration : 2h 36mn
Bit rate : 877 Kbps
Width : 672 pixels
Height : 288 pixels
Display aspect ratio : 2.35:1
Frame rate : 23.976 fps
Color space : YUV
Chroma subsampling : 4:2:0
Bit depth : 8 bits
Scan type : Progressive
Bits/(Pixel*Frame) : 0.189
Stream size : 981 MiB (49%)
Writing library : XviD 1.2.1 (UTC 2008-12-04)

Audio #1
ID : 1
Format : AC-3
Format/Info : Audio Coding 3
Mode extension : CM (complete main)
Codec ID : 2000
Duration : 2h 36mn
Bit rate mode : Constant
Bit rate : 448 Kbps
Channel(s) : 6 channels
Channel positions : Front: L C R, Side: L R, LFE
Sampling rate : 48.0 KHz
Bit depth : 16 bits
Stream size : 501 MiB (25%)
Alignment : Split accross interleaves
Interleave, duration : 42 ms (1.00 video frame)
Interleave, preload duration : 500 ms

Audio #2
ID : 2
Format : AC-3
Format/Info : Audio Coding 3
Mode extension : CM (complete main)
Codec ID : 2000
Duration : 2h 36mn
Bit rate mode : Constant
Bit rate : 448 Kbps
Channel(s) : 6 channels
Channel positions : Front: L C R, Side: L R, LFE
Sampling rate : 48.0 KHz
Bit depth : 16 bits
Video delay : 16ms
Stream size : 501 MiB (25%)
Alignment : Split accross interleaves
Interleave, duration : 42 ms (1.00 video frame)
Interleave, preload duration : 500 ms

freetor.icu



Скачать Агент Винод через торрент https://pic1.kartinco.top/images/2000/d51dbjtknl.jpg Скачать, смотреть онлайн Агент Винод бесплантно в хорошем качестве Описание: Самое страшное наследие Холодной войны – ядерное оружие. Тайные службы всего мира делают все возможное, чтобы оно не попало в ... 10 10 2
Info! Золотая раздача, скачанное не засчитывается.
Торрент: Зарегистрирован [2012-05-29 10:58] · скачан: 112 раз
Статус: √ проверено
Размер: 1.95 GB
Как cкачать? Как скачать Агент Винод через торрент | UTorrent



Последний раз редактировалось: ZieruS 56rus (2012-06-05 15:59), всего редактировалось 5 раз(а)

28-11-2019 20:33  

Отключить всю рекламу на сайте

29-05-2012 11:25 Агент Винод Скачать торрент  

кто смотрел? как оно??freetor.icu



29-05-2012 15:08 Агент Винод Скачать торрент  

ZieruS 56rus
Укажи продолжительность , битрейт видео.freetor.icu



29-05-2012 15:40 Агент Винод Скачать торрент  

-=Cherry=-
Извеняюсь в спешке пропустил случайно =)freetor.icu



29-05-2012 17:26 Агент Винод Скачать торрент  

так как фильм?freetor.icu



    Дорогой пользователь! Огромная просьба, поблагодарите релизера, оцените раздачу и оставьте свои комментарий, если Вы скачали Агент Винод через торрент бесплатно!
    Комментировать посты могут только пользователи прошедшие не сложную регистрацию
    Показать сообщения:    

    Агент Винод через торрент
    Скачать бесплатно Агент Винод
    Агент Винод скачать торрент
    Агент Винод смотреть онлайн
    Cкачать фильм Агент Винод бесплатно
    Агент Винод скачать торрент в хорошем качестве
    Агент Винод смотреть онлайн бесплатно в хорошем качестве


    Вы не можете начинать темы
    Вы не можете отвечать на сообщения
    Вы не можете редактировать свои сообщения
    Вы не можете удалять свои сообщения
    Вы не можете голосовать в опросах
    Вы не можете прикреплять файлы к сообщениям
    Вы можете скачивать файлы