>

5.6

iTunes

6.1

MVO

5.7

MVO

1

7.4

1 сезон

6.8

iTunes

7.2

1 сезон

13

6.7

1 сезон

8.3

RePack

30

Deluxe

pack

9.9

Лицензия

ВАЖНО

ИГРА 18+

pack

7.3

RePack

MK11

7.7

RePack

jed

7.8

RePack

fifa19

8.5

RePack

RDR2

RePack

NEED FOR SPEED™ PAYBACK

4 сезон

9 сезон

Бесстыжие 9 сезон

Все сериалы

все сериалы на PB.wtf

RePack

FAR CRY 5

Anonymous, добрый вечер, мы катастрофически не успеваем собрать деньги на оплату серверов, помогите нам пожалуйста 5,10,15р., для нас важна любая помощь . В качестве благодарности мы отключим Вам всю рекламу на сайте (укажите свой ник в строку Ваше имя)!

×
  
Magnet ссылка

SlaYer-Live Intrusion (Филл Такетт) [2010 г.(переиздания 1995), Трэш-метал, DVD5, Оригинал] freetor.icu

SlaYer-Live Intrusion через торрент freetor.icu

Размер: 4.17 GB | Добавлен: 9 лет 5 мес. назад | Торрент скачан:9 раз
Смотреть онлайн SlaYer-Live Intrusion | Скачать    Ребята, помогите собрать деньги на оплату серверов!!!

21-04-2012 10:05 SlaYer-Live Intrusion Скачать торрент  


Live Intrusion



Год выпуска: 2010 (переиздания 1995)
Страна: США
Жанр: Трэш-метал
Продолжительность: 01ч10мин
Перевод: Оригинал

Режиссер: Филл Такетт
Продюссер: Рик Рубин

Состав:
Том Арайа — бас, вокал, продюсер
Джефф Ханнеман — гитара
Керри Кинг — гитара, продюсер
Пол Бостаф — барабаны

Треклист:

01. Raining Blood
02. Killing Fields
03. War Ensemble
04. At Dawn They Sleep
05. Divine Intervention
06. Dittohead
07. Captor Of Sin
08. 213
09. South of Heaven
10. Sex, Murder, Art
11. Mandatory Suicide
12. Angel Of Death
13. Hell Awaits
14. Witching Hour (Venom Cover)
15. Chemical Warfar
e
Описание: Slayer ([ˈsleɪə], рус. убийца) — американская метал-группа. Коллектив был основан в 1981 году гитаристами Джеффом Ханнеманом и Керри Кингом в Хаунтингтон Парк, Калифорния. Slayer возглавила музыкальное движение американского трэш-метала после выпуска своего альбома Reign in Blood (1986), который считается лучшим достижением группы и «классикой трэш-метала». Вместе с группами Metallica, Megadeth и Anthrax Slayer составляет «большую четвёрку трэш-метала».

Характерные черты музыки Slayer — быстрый темп, скоростные гитарные соло и тремоло; кричащий вокал и использование двойного бас-барабана. Тематика оформления альбомов и тексты песен группы связаны со смертью, адом, сатанизмом, насилием, войной, серийными убийцами, геноцидом и зачастую носят антирелигиозный характер, за что группу очень жёстко критиковали религиозные деятели и простые слушатели. По тем же причинам выпуск альбомов Slayer задерживался, а их продажа запрещалась во многих странах мира.

Live Intrusion («Живое Вторжение») — домашнее видео Slayer, который был выпущен в 1995 году через American Recordings. Снятый в Амфитеатре, Аризона 12 марта 1995. Видео показывает песни Venom «Witching Hour» исполненная Slayer с помощью Криса Контоса и Робба Флинна Machine Head
Этот DVD диск выпущенный в 2010г, всего лишь переиздание VHS выпущенное в 1995г.

Качество: DVD5
Формат: DVD Video
Видео кодек: MPEG-PS
Аудио кодек: DVD-Audio
Видео: 6225 Кбит/сек,720*480 (4:3), в 29.970 кадр/сек, MPEG Video (NTSC)(Version 2)
Аудио#1: 1536 Кбит/сек,48.0 КГц, 16 бит, 2 канала, PCM (DVD-Video)







Полное имя : C:UsersMr.KuzjDesktopSlayer - Live Intrusion - 2010 [DVD].vob
Формат : MPEG-PS
Размер файла : 4,16 Гбайт
Продолжительность : 01ч.10м. 33 с.
Режим общего битрейта : Переменный
Общий поток : 7919 Кбит/сек

Видео
Идентификатор : 224 (0xE0)
Формат : MPEG Video
Версия формата : Version 2
Профиль формата : Main@Main
Параметр BVOP формата : Да
Параметр матрицы формата : Выборочная
Параметр GOP формата : M=1, N=15
Продолжительность : 01ч. 10м. 33 с.
Вид битрейта : Переменный
Битрейт : 6225 Кбит/сек
Максимальный битрейт : 9800 Кбит/сек
Ширина : 720 пикселей
Высота : 480 пикселей
Соотношение сторон : 4:3
Частота кадров : 29,970 кадров/сек
Стандарт вещания : NTSC
Цветовое пространство : YUV
Субдискретизация насыщенности : 4:2:0
Битовая глубина : 8 бит
Тип развёртки : Чересстрочная
Порядок развёртки : Верхнее поле первое
Метод сжатия : С потерями
Бит/(Пиксели*Кадры) : 0.601
Размер потока : 69,4 Мбайт (79%)

Аудио
Идентификатор : 189 (0xBD)-160 (0xA0)
Формат : PCM
Параметр Endianness формата : Big
Параметр Sign формата : Signed
Режим смешивания : DVD-Video
Продолжительность : 01ч 10 м. 33 с.
Вид битрейта : Постоянный
Битрейт : 1536 Кбит/сек
Каналы : 2 канала
Частота : 48,0 КГц
Битовая глубина : 16 бит
Задержка видео : -358 мс.
Размер потока : 17,1 Мбайт (19%)



freetor.icu



Скачать SlaYer-Live Intrusion через торрент http://s019.radikal.ru/i628/1204/0c/84f123e19046.jpg Скачать, смотреть онлайн SlaYer-Live Intrusion бесплантно в хорошем качестве Описание: Slayer ([ˈsleɪə], рус. убийца) — американская метал-группа. Коллектив был основан в 1981 году гитаристами Джеффом Ханнеманом и ... 4 10 3
Info! Золотая раздача, скачанное не засчитывается.
Торрент: Зарегистрирован [2012-04-21 10:05] · скачан: 9 раз
Статус: √ проверено
Размер: 4.17 GB
Как cкачать? Как скачать SlaYer-Live Intrusion через торрент | UTorrent



Последний раз редактировалось: MrKuzj (2013-02-04 10:16), всего редактировалось 1 раз

28-11-2019 20:33  

Отключить всю рекламу на сайте

21-04-2012 11:32 SlaYer-Live Intrusion Скачать торрент  

Господа незабываем благодарить!freetor.icu



    Дорогой пользователь! Огромная просьба, поблагодарите релизера, оцените раздачу и оставьте свои комментарий, если Вы скачали SlaYer-Live Intrusion через торрент бесплатно!
    Комментировать посты могут только пользователи прошедшие не сложную регистрацию
    Показать сообщения:    

    SlaYer-Live Intrusion через торрент
    Скачать бесплатно SlaYer-Live Intrusion
    SlaYer-Live Intrusion скачать торрент
    SlaYer-Live Intrusion смотреть онлайн
    Cкачать фильм SlaYer-Live Intrusion бесплатно
    SlaYer-Live Intrusion скачать торрент в хорошем качестве
    SlaYer-Live Intrusion смотреть онлайн бесплатно в хорошем качестве


    Вы не можете начинать темы
    Вы не можете отвечать на сообщения
    Вы не можете редактировать свои сообщения
    Вы не можете удалять свои сообщения
    Вы не можете голосовать в опросах
    Вы не можете прикреплять файлы к сообщениям
    Вы можете скачивать файлы