>

5.6

iTunes

6.1

MVO

5.7

MVO

1

7.4

1 сезон

6.8

iTunes

7.2

1 сезон

13

6.7

1 сезон

8.3

RePack

30

Deluxe

pack

9.9

Лицензия

ВАЖНО

ИГРА 18+

pack

7.3

RePack

MK11

7.7

RePack

jed

7.8

RePack

fifa19

8.5

RePack

RDR2

RePack

NEED FOR SPEED™ PAYBACK

4 сезон

9 сезон

Бесстыжие 9 сезон

Все сериалы

все сериалы на PB.wtf

RePack

FAR CRY 5

Anonymous, добрый вечер, мы катастрофически не успеваем собрать деньги на оплату серверов, помогите нам пожалуйста 5,10,15р., для нас важна любая помощь . В качестве благодарности мы отключим Вам всю рекламу на сайте (укажите свой ник в строку Ваше имя)!

×
  
Magnet ссылка

Пикник и Вадим Самойлов (Агата Кристи) - Не кончается пытка [2004 г., рок, DVDRip] freetor.icu

Пикник и Вадим Самойлов через торрент freetor.icu

Размер: 103 MB | Добавлен: 9 лет 7 мес. назад | Торрент скачан:38 раз
Смотреть онлайн Пикник и Вадим Самойлов | Скачать    Ребята, помогите собрать деньги на оплату серверов!!!

13-02-2012 03:48 Пикник и Вадим Самойлов Скачать торрент  

Пикник и Вадим Самойлов (Агата Кристи) - Не кончается пытка

Год выпуска: 2004
Страна: Россия
Жанр: рок
Продолжительность: 4:32
Перевод: Не требуется

В ролях: Пикник и Вадим Самойлов

Доп. информация: клип на песню из альбома группы Пикник и Вадима Самойлова - Тень вампира (2004)

Качество: DVDRip
Формат: MPEG
Видео: Video ID : 224 (0xE0) Format : MPEG Video Format version : Version 1 Format settings, BVOP : Yes Format settings, Matrix : Default Duration : 4mn 31s Bit rate mode : Variable Bit rate : 2 903 Kbps Width : 720 pixels Height : 576 pixels Display aspect ratio : 4:3 Frame rate : 25.000 fps Standard : PAL Color space : YUV Bit depth : 8 bits Scan type : Progressive Bits/(Pixel*Frame) : 0.280 Stream size : 93.8 MiB (91%) Writing library : TMPGEnc 2.511.51.160
Аудио#1: Audio ID : 192 (0xC0) Format : MPEG Audio Format version : Version 1 Format profile : Layer 2 Duration : 4mn 31s Bit rate mode : Constant Bit rate : 224 Kbps Channel(s) : 2 channels Sampling rate : 44.1 KHz Stream size : 7.24 MiB (7%)
freetor.icu



Скачать Пикник и Вадим Самойлов через торрент http://1nsk.ru/data/podcast/19/full/8f6c8517707eea7a.jpg Скачать, смотреть онлайн Пикник и Вадим Самойлов бесплантно в хорошем качестве В ролях: Пикник и Вадим СамойловДоп. информация: клип на песню из альбома группы Пикник и Вадима Самойлова - Тень вампира ... 4.8 10 5
Info! Золотая раздача, скачанное не засчитывается.
Торрент: Зарегистрирован [2012-02-13 03:48] · скачан: 38 раз
Статус: √ проверено
Размер: 103 MB
Как cкачать? Как скачать Пикник и Вадим Самойлов через торрент | UTorrent



Последний раз редактировалось: dvvovan (2012-02-13 18:22), всего редактировалось 1 раз

28-11-2019 20:33  

Отключить всю рекламу на сайте

13-02-2012 06:09 Пикник и Вадим Самойлов Скачать торрент  

Где раздача?!!!!!!!!!!!!freetor.icu



20-02-2012 21:51 Пикник и Вадим Самойлов Скачать торрент  

Приведите к нормальному виду технические данные видео и аудио дорожек!
Так же скриншот не соответствует заявленному размеру видео!freetor.icu



    Дорогой пользователь! Огромная просьба, поблагодарите релизера, оцените раздачу и оставьте свои комментарий, если Вы скачали Пикник и Вадим Самойлов через торрент бесплатно!
    Комментировать посты могут только пользователи прошедшие не сложную регистрацию
    Показать сообщения:    

    Пикник и Вадим Самойлов через торрент
    Скачать бесплатно Пикник и Вадим Самойлов
    Пикник и Вадим Самойлов скачать торрент
    Пикник и Вадим Самойлов смотреть онлайн
    Cкачать фильм Пикник и Вадим Самойлов бесплатно
    Пикник и Вадим Самойлов скачать торрент в хорошем качестве
    Пикник и Вадим Самойлов смотреть онлайн бесплатно в хорошем качестве


    Вы не можете начинать темы
    Вы не можете отвечать на сообщения
    Вы не можете редактировать свои сообщения
    Вы не можете удалять свои сообщения
    Вы не можете голосовать в опросах
    Вы не можете прикреплять файлы к сообщениям
    Вы можете скачивать файлы