1 сезон

3 сезон

iTunes

1

iTunes

DUB Netflix

iTunes

13

1 сезон

RePack

30

Deluxe

pack

Легкие деньги

ВАЖНО

ИГРА 18+

pack

RePack

MK11

RePack

jed

RePack

fifa19

RePack

RDR2

RePack

NEED FOR SPEED™ PAYBACK

4 сезон

9 сезон

Бесстыжие 9 сезон

Все сериалы

все сериалы на PB.wtf

RePack

FAR CRY 5

Anonymous, добрый вечер, мы не успеваем до 1 числа собрать деньги на оплату серверов, помогите нам пожалуйста в это трудное время. В качестве благодарности мы отключим Вам всю рекламу на сайте (укажите свой ник в строку Ваше имя)!

×
  
Magnet ссылка

Армия преступников / L'armйe du crime (Робер Гедигян) [2009 г., драма, военный, история, HDRip] freetor.icu

Армия преступников через торрент freetor.icu

Размер: 1.45 GB | Добавлен: 9 лет 4 мес. назад | Торрент скачан:40 раз
Скачать  

11-02-2012 17:29 Армия преступников Скачать торрент  

Армия преступников / L'armйe du crime


Год выпуска: 2009
Страна: Франция
Жанр: драма, военный, история
Продолжительность: 02:18:24
Перевод: Любительский (двухголосый закадровый) |Сладкая Парочка|

Режиссер: Робер Гедигян
Продюссер: Dominique Barneaud
Сценарий: Робер Гедигян, Серж Ле Перон, Жиль Торан

Бюджет: $37 031

Мировой рейтинг IMDB 6.50 (1 194)


В ролях: Симон Абкарян, Виржини Ледуайен, Робинсон Стевенен, Лола Наймарк, Грегуар Лепренс-Ренге, Эдриан Жоливе, Ольга Легран, Александру Поточан, Жан-Пьер Дарруссен, Янн Трегуэ

Описание: В оккупированном немцами Париже рабочий и поэт Миссак Манукян организует вокруг себя группу молодежи — евреев, венгров, поляков, румын, испанцев, итальянцев, армян, — полных решимости сражаться за ту Францию, которую они любят — за родину прав человека. Ведя подпольную борьбу, рискуя жизнью, они становятся героями. Теракты, подготовленные этими партизанами-иностранцами, не дают покоя немцам и коллаборационистам. Французская полиция принимает экстренные меры, задействует дополнительные силы, использует слежку, доносы, шантаж, пытки...

Качество: HDRip
Формат: AVI
Видео кодек: XviD
Аудио кодек: AC3
Видео: 720x384 (1.88:1), 24 fps, XviD build 64 ~1298 kbps avg, 0.20 bit/pixel
Аудио#1: 48 kHz, AC3 Dolby Digital, 2/0 (L,R) ch, ~192 kbps


General
Complete name : C:\Армия.Преступников.avi
Format : AVI
Format/Info : Audio Video Interleave
File size : 1.45 GiB
Duration : 2h 18mn
Overall bit rate : 1 499 Kbps
Writing application : VirtualDubMod 1.5.10.2 (build 2540/release)
Writing library : VirtualDubMod build 2540/release

Video
ID : 0
Format : MPEG-4 Visual
Format profile : Advanced [email protected]
Format settings, BVOP : 1
Format settings, QPel : No
Format settings, GMC : No warppoints
Format settings, Matrix : Custom
Codec ID : XVID
Codec ID/Hint : XviD
Duration : 2h 18mn
Bit rate : 1 298 Kbps
Width : 720 pixels
Height : 384 pixels
Display aspect ratio : 1.875
Frame rate : 24.000 fps
Color space : YUV
Chroma subsampling : 4:2:0
Bit depth : 8 bits
Scan type : Progressive
Compression mode : Lossy
Bits/(Pixel*Frame) : 0.196
Stream size : 1.26 GiB (87%)
Writing library : XviD 64

Audio
ID : 1
Format : AC-3
Format/Info : Audio Coding 3
Mode extension : CM (complete main)
Codec ID : 2000
Duration : 2h 18mn
Bit rate mode : Constant
Bit rate : 192 Kbps
Channel(s) : 2 channels
Channel positions : Front: L R
Sampling rate : 48.0 KHz
Bit depth : 16 bits
Compression mode : Lossy
Stream size : 190 MiB (13%)
Alignment : Split accross interleaves
Interleave, duration : 42 ms (1.00 video frame)
Interleave, preload duration : 500 ms


freetor.icu



Скачать Армия преступников через торрент http://i10.fastpic.ru/big/2010/0926/3b/211544928416f8b9416c964609a8fd3b.jpg Скачать фильм Армия преступников через торрент бесплантно в хорошем качестве Описание: В оккупированном немцами Париже рабочий и поэт Миссак Манукян организует вокруг себя группу молодежи — евреев, венгров, поляков, ... 4.7 10 3
Info! Золотая раздача, скачанное не засчитывается.
Торрент: Зарегистрирован [2012-02-11 17:29] · скачан: 40 раз
Статус: √ проверено
Размер: 1.45 GB
Как cкачать? Как скачать Армия преступников через торрент | UTorrent

28-11-2019 20:33  

Отключить всю рекламу на сайте

11-02-2012 18:12 Армия преступников Скачать торрент  

Очередные герои, без которых не было бы победы. freetor.icu



    Дорогой пользователь! Огромная просьба, поблагодарите релизера, оцените раздачу и оставьте свои комментарий, если Вы скачали Армия преступников через торрент бесплатно! Внесите свою лепту в развитие PiratBit!
    Комментировать посты могут только пользователи прошедшие не сложную регистрацию
    Показать сообщения:    

    Армия преступников через торрент
    Скачать бесплатно Армия преступников
    Армия преступников скачать торрент
    Армия преступников смотреть онлайн
    Cкачать фильм Армия преступников бесплатно
    Армия преступников скачать торрент в хорошем качестве
    Армия преступников смотреть онлайн бесплатно в хорошем качестве


    Вы не можете начинать темы
    Вы не можете отвечать на сообщения
    Вы не можете редактировать свои сообщения
    Вы не можете удалять свои сообщения
    Вы не можете голосовать в опросах
    Вы не можете прикреплять файлы к сообщениям
    Вы можете скачивать файлы