1 сезон

3 сезон

iTunes

1

iTunes

DUB Netflix

iTunes

13

1 сезон

RePack

30

Deluxe

pack

Легкие деньги

ВАЖНО

ИГРА 18+

pack

RePack

MK11

RePack

jed

RePack

fifa19

RePack

RDR2

RePack

NEED FOR SPEED™ PAYBACK

4 сезон

9 сезон

Бесстыжие 9 сезон

Все сериалы

все сериалы на PB.wtf

RePack

FAR CRY 5

Anonymous, добрый вечер, мы не успеваем до 1 числа собрать деньги на оплату серверов, помогите нам пожалуйста в это трудное время. В качестве благодарности мы отключим Вам всю рекламу на сайте (укажите свой ник в строку Ваше имя)!

×
  
Magnet ссылка

Святые из бундока 2: День всех святых / The Boondock Saints II: All Saints Day (Трой Даффи) [2009, боевик, триллер, драма, комедия, криминал, BDRip-AVC, MVO] freetor.icu

Святые из бундока 2: День всех святых через торрент freetor.icu

Размер: 1.45 GB | Добавлен: 3 года 2 мес. назад | Торрент скачан:84 раза
Скачать  

30-12-2011 10:55 Святые из бундока 2: День всех святых Скачать торрент  

Святые из бундока 2: День всех святых / The Boondock Saints II: All Saints Day
Год выпуска: 2009
Страна: США
Жанр: боевик, триллер, драма, комедия, криминал
Продолжительность: 01:57:30
Перевод: Профессиональный (многоголосый, закадровый)
Субтитры: отсутствуют
Режиссёр: Трой Даффи
В ролях: Шон Патрик Флэнери, Норман Ридус, Билли Коннолли, Клифтон Коллинз мл., Джули Бенц, Питер Фонда, Пол Йоханссон, Джадд Нельсон, Дэвид Делла Рокко, Боб Марли
Описание: Последние 8 лет братья жили вместе с отцом на ферме в глубинке Ирландии. Однажды их дядя рассказывает им о слухах, что они причастны к убийству католического священника Бостона. Парни возвращаются в Бостон, чтобы очистить свою испорченную репутацию, и найти людей, подставивших их.
Качество: BDRip-AVC
Формат: MKV
Видео кодек: х264
Аудио кодек: AC3
Видео: 1016 x 432 (2.35:1), 23.976 fps, AVC (х264), [email protected], ~ 1387 Kbps, 0.132 bit/pixel
Аудио: 48 kHz, AC3 Dolby Digital, 3/2 (L,C,R,l,r) + LFE ch, ~384 kbps
General
Unique ID : 189843551395480131672293945652938102298 (0x8ED289BCDE0B72799BD539517D05561A)
Complete name : E:\Downloads\Svyatie.iz.Bundoka.2.chopper887.mkv
Format : Matroska
File size : 1.45 GiB
Duration : 1h 57mn
Overall bit rate : 1 771 Kbps
Movie name : Svyatie.iz.Bundoka.2.chopper887
Encoded date : UTC 2012-01-24 15:36:02
Writing application : mkvmerge v4.8.0 ('I Got The...') сборка от May 24 2011 03:12:58
Writing library : libebml v1.2.0 + libmatroska v1.1.0

Video
ID : 1
Format : AVC
Format/Info : Advanced Video Codec
Format profile : [email protected]
Format settings, CABAC : Yes
Format settings, ReFrames : 10 frames
Codec ID : V_MPEG4/ISO/AVC
Duration : 1h 57mn
Bit rate : 1 387 Kbps
Width : 1 016 pixels
Height : 432 pixels
Display aspect ratio : 2.35:1
Frame rate : 23.976 fps
Color space : YUV
Chroma subsampling : 4:2:0
Bit depth : 8 bits
Scan type : Progressive
Bits/(Pixel*Frame) : 0.132
Stream size : 1.11 GiB (76%)
Title : Svyatie.iz.Bundoka.2.chopper887
Writing library : x264 core 120 r2146 bcd41db
Encoding settings : cabac=1 / ref=10 / deblock=1:-2:-1 / analyse=0x3:0x133 / me=umh / subme=11 / psy=1 / psy_rd=1.00:0.10 / mixed_ref=1 / me_range=32 / chroma_me=1 / trellis=2 / 8x8dct=1 / cqm=0 / deadzone=21,11 / fast_pskip=0 / chroma_qp_offset=-3 / threads=12 / sliced_threads=0 / nr=0 / decimate=1 / interlaced=0 / bluray_compat=0 / constrained_intra=0 / bframes=10 / b_pyramid=2 / b_adapt=2 / b_bias=0 / direct=3 / weightb=1 / open_gop=0 / weightp=2 / keyint=250 / keyint_min=23 / scenecut=40 / intra_refresh=0 / rc_lookahead=80 / rc=2pass / mbtree=1 / bitrate=1387 / ratetol=1.0 / qcomp=0.60 / qpmin=0 / qpmax=69 / qpstep=4 / cplxblur=20.0 / qblur=0.5 / ip_ratio=1.40 / aq=1:1.00
Language : English

Audio
ID : 2
Format : AC-3
Format/Info : Audio Coding 3
Mode extension : CM (complete main)
Codec ID : A_AC3
Duration : 1h 57mn
Bit rate mode : Constant
Bit rate : 384 Kbps
Channel(s) : 6 channels
Channel positions : Front: L C R, Side: L R, LFE
Sampling rate : 48.0 KHz
Bit depth : 16 bits
Compression mode : Lossy
Stream size : 323 MiB (22%)
Title : MVO
freetor.icu



Скачать Святые из бундока 2: День всех святых через торрент http://i30.fastpic.ru/big/2011/1230/83/0d649a5cd646301d9208d2ce6aa75183.jpg Скачать фильм Святые из бундока 2: День всех святых через торрент бесплантно в хорошем качестве Описание: Последние 8 лет братья жили вместе с отцом на ферме в глубинке Ирландии. Однажды их дядя рассказывает им о слухах, что они ... 10 10 10
Торрент: Зарегистрирован [2018-04-11 17:30] · скачан: 84 раз
Статус: √ проверено
Размер: 1.45 GB
Как cкачать? Как скачать Святые из бундока 2: День всех святых через торрент | UTorrent

% Раздел Тема Автор DL S | L
Фильмы [HD 720p, 1080p] (Хороший звук DUB, MVO) [ 9.51 GB ] Святые из Бундока 2: День всех святых / The Boondock Saints II: All Saints Day [2009 BDRip 1080p] [MVO] + [AVO] + 2x[VO] killermax2013 Скачать
2 | 0
Фильмы (HD 720p, 1080p) (48-60 fps) [ 3.82 GB ] Святые из Бундока 2: День всех святых / The Boondock Saints II: All Saints Day [2009 BDRip 720p многоголосый ] slaventi-69 Скачать
2 | 1
Фильмы 2009 [ 2.18 GB ] Святые из бундока 2: День всех святых / Boondock Saints II: All Saints Day The [2009 BDRip MVO] DEVI Скачать
1 | 0

28-11-2019 20:33  

Отключить всю рекламу на сайте

11-04-2018 18:00 Святые из бундока 2: День всех святых Скачать торрент  

Зачетный фильмfreetor.icu



    Дорогой пользователь! Огромная просьба, поблагодарите релизера, оцените раздачу и оставьте свои комментарий, если Вы скачали Святые из бундока 2: День всех святых через торрент бесплатно! Внесите свою лепту в развитие PiratBit!
    Комментировать посты могут только пользователи прошедшие не сложную регистрацию
    Показать сообщения:    

    Святые из бундока 2: День всех святых через торрент
    Скачать бесплатно Святые из бундока 2: День всех святых
    Святые из бундока 2: День всех святых скачать торрент
    Святые из бундока 2: День всех святых смотреть онлайн
    Cкачать фильм Святые из бундока 2: День всех святых бесплатно
    Святые из бундока 2: День всех святых скачать торрент в хорошем качестве
    Святые из бундока 2: День всех святых смотреть онлайн бесплатно в хорошем качестве


    Вы не можете начинать темы
    Вы не можете отвечать на сообщения
    Вы не можете редактировать свои сообщения
    Вы не можете удалять свои сообщения
    Вы не можете голосовать в опросах
    Вы не можете прикреплять файлы к сообщениям
    Вы можете скачивать файлы