>

5.6

iTunes

6.1

MVO

5.7

MVO

1

7.4

1 сезон

6.8

iTunes

7.2

1 сезон

13

6.7

1 сезон

8.3

RePack

30

Deluxe

pack

9.9

Лицензия

ВАЖНО

ИГРА 18+

pack

7.3

RePack

MK11

7.7

RePack

jed

7.8

RePack

fifa19

8.5

RePack

RDR2

RePack

NEED FOR SPEED™ PAYBACK

4 сезон

9 сезон

Бесстыжие 9 сезон

Все сериалы

все сериалы на PB.wtf

RePack

FAR CRY 5

Anonymous, добрый день, мы катастрофически не успеваем собрать деньги на оплату серверов, помогите нам пожалуйста 5,10,15р., для нас важна любая помощь . В качестве благодарности мы отключим Вам всю рекламу на сайте (укажите свой ник в строку Ваше имя)!

×
  
Magnet ссылка

(Rock) Serj Tankian - Goodbye - Gate 21 (Rock Remix) - 2011, WEB-DLRip 1080 freetor.icu

через торрент freetor.icu

Размер: 36 MB | Добавлен: 9 лет назад | Торрент скачан:64 раза
Смотреть онлайн | Скачать    Ребята, помогите собрать деньги на оплату серверов!!!

06-11-2011 13:55 Скачать торрент  


Serj Tankian Goodbye - Gate 21 (Rock Remix)
Год выпуска: 2011
Страна: США
Жанр: Rock
Продолжительность: 0:03:40


E:\Other\Serj Tankian Goodbye - Gate 21 (Rock Remix) - Official Video Featuring The FCC And Tom Morello.avi
General
Complete name : E:\Other\Serj Tankian Goodbye - Gate 21 (Rock Remix) - Official Video Featuring The FCC And Tom Morello.avi
Format : AVI
Format/Info : Audio Video Interleave
File size : 35.6 MiB
Duration : 3mn 40s
Overall bit rate : 1 358 Kbps
Video #0
ID : 0
Format : AVC
Format/Info : Advanced Video Codec
Format profile : Main@L5.1
Format settings, CABAC : Yes
Format settings, ReFrames : 1 frame
Codec ID : H264
Duration : 3mn 39s
Bit rate : 1 159 Kbps
Width : 1 920 pixels
Height : 1 080 pixels
Display aspect ratio : 16:9
Frame rate : 23.976 fps
Color space : YUV
Chroma subsampling : 4:2:0
Bit depth : 8 bits
Scan type : Progressive
Bits/(Pixel*Frame) : 0.023
Stream size : 30.3 MiB (85%)
Audio #1
ID : 1
Format : MPEG Audio
Format version : Version 1
Format profile : Layer 3
Codec ID : 55
Codec ID/Hint : MP3
Duration : 3mn 40s
Bit rate mode : Constant
Bit rate : 192 Kbps
Channel(s) : 2 channels
Sampling rate : 44.1 KHz
Compression mode : Lossy
Stream size : 5.04 MiB (14%)
Alignment : Split accross interleaves
Interleave, duration : 42 ms (1.00 video frame)
Interleave, preload duration : 396 ms
Writing library : LAMELAME_MAJOR_VERSI
Качество: WEB-DLRip
Формат: AVI
Видео кодек: H264
Аудио кодек: MP3
Видео:1920x1080 (16:9), 1358 Кбит/сек, 23.976 fps
Аудио:192 Kbps, 44.1 KHz
freetor.icu



Скачать через торрент http://i32.fastpic.ru/big/2011/1106/a5/a495973d769b273e00ab187f654424a5.jpg Скачать, смотреть онлайн бесплантно в хорошем качестве Год выпуска: 2011Страна: СШАЖанр: RockПродолжительность: 0:03:40E:\Other\Serj Tankian Goodbye - Gate 21 (Rock Remix) - Official Video ... 4.7 10 6
Info! Золотая раздача, скачанное не засчитывается.
Торрент: Зарегистрирован [2011-11-06 13:55] · скачан: 64 раз
Статус: √ проверено
Размер: 36 MB
Как cкачать? Как скачать через торрент | UTorrent

% Раздел Тема Автор DL S | L
Игра престолов [ 109.58 GB ] Игра престолов / Game of Thrones / Сезон: 1-8 из 8 / Серии: 1-73 из 73 [2011-2019 HEVC BDRip 1080p WEB-DLRip 1080p] 2xDUB [РЕН-ТВ Амедиа] sheker187 Скачать
4 | 4
Игра престолов [ 322.59 GB ] Игра престолов / Game of Thrones / Сезон: 1-8 из 8 / Серии: 1-73 из 73 [2011-2019 BDRip 1080p WEB-DLRip 1080p] MVO [LostFilm] sheker187 Скачать
5 | 2
Наши фильмы (HD, WEB-DL 720p, 1080p) [ 1.17 GB ] Самка [2011 WEB-DLRip 1080р] schultz Скачать
1 | 0
Наши фильмы (HD, WEB-DL 720p, 1080p) [ 1.6 GB ] Арифметика подлости [2011 WEB-DLRip 1080p] [Русский] smaster Скачать
1 | 0
Наши фильмы (HD, WEB-DL 720p, 1080p) [ 1.42 GB ] Одуванчик [2011 WEB-DLRip 1080p] [Русский] smaster Скачать
1 | 0
Клипы [ 656 MB ] LMFAO - Sexy And I Know It [2011 House WEB-DLRip 1080p] opupokin Скачать
1 | 0
Клипы [ 209 MB ] Аквариум - Марш Священных Коров [2011 Rock WEB-DLRip 1080p] opupokin Скачать
1 | 0

28-11-2019 20:33  

Отключить всю рекламу на сайте

06-11-2011 14:19 Скачать торрент  

чёт не пойму , почему раздача не пошла...вроде всё как обычно сделал...
да чё за !? раздача пошла , ток с моими 20 мб раздаётся по 15 килов ...ничё не подскажете ?

З.Ы. песня зачётная , даже лучше оригинала ИМХОfreetor.icu



    Дорогой пользователь! Огромная просьба, поблагодарите релизера, оцените раздачу и оставьте свои комментарий, если Вы скачали через торрент бесплатно!
    Комментировать посты могут только пользователи прошедшие не сложную регистрацию
    Показать сообщения:    

    через торрент
    Скачать бесплатно
    скачать торрент
    смотреть онлайн
    Cкачать фильм бесплатно
    скачать торрент в хорошем качестве
    смотреть онлайн бесплатно в хорошем качестве


    Вы не можете начинать темы
    Вы не можете отвечать на сообщения
    Вы не можете редактировать свои сообщения
    Вы не можете удалять свои сообщения
    Вы не можете голосовать в опросах
    Вы не можете прикреплять файлы к сообщениям
    Вы можете скачивать файлы