>

5.6

iTunes

6.1

MVO

5.7

MVO

1

7.4

1 сезон

6.8

iTunes

7.2

1 сезон

13

6.7

1 сезон

8.3

RePack

30

Deluxe

pack

9.9

Лицензия

ВАЖНО

ИГРА 18+

pack

7.3

RePack

MK11

7.7

RePack

jed

7.8

RePack

fifa19

8.5

RePack

RDR2

RePack

NEED FOR SPEED™ PAYBACK

4 сезон

9 сезон

Бесстыжие 9 сезон

Все сериалы

все сериалы на PB.wtf

RePack

FAR CRY 5

Anonymous, добрый вечер, мы катастрофически не успеваем собрать деньги на оплату серверов, помогите нам пожалуйста 5,10,15р., для нас важна любая помощь . В качестве благодарности мы отключим Вам всю рекламу на сайте (укажите свой ник в строку Ваше имя)!

×
  
Magnet ссылка

Queen - The Show Must Go On [1991 г., Rock, TVRip] freetor.icu

Queen - The Show Must Go On через торрент freetor.icu

Размер: 59 MB | Добавлен: 9 лет назад | Торрент скачан:50 раз
Смотреть онлайн Queen - The Show Must Go On | Скачать    Ребята, помогите собрать деньги на оплату серверов!!!

06-11-2011 12:44 Queen - The Show Must Go On Скачать торрент  


Queen - The Show Must Go On



Год выпуска: 1991
Страна: Великобритания
Жанр: Rock
Продолжительность: 0:04:16


The Show Must Go On - песня английской рок-группы Queen с альбома «Innuendo». Многие её считают одной из самых лучших песен Queen и одной из самых известных песен Рок-музыки вообще. Клип состоит из кадров хроники, концертов, интервью и других клипов выходивших с 1980 по 1991 годы. Песня попала в сборник Greatest Hits II
Общее
Полное имя : E:\torenti\The Show Must Go On.avi
Формат : AVI
Формат/Информация : Audio Video Interleave
Размер файла : 58,5 Мбайт
Продолжительность : 4 м. 16 с.
Общий поток : 1914 Кбит/сек
Библиотека кодирования : VirtualDub build 15654/release

Видео
Идентификатор : 0
Формат : MPEG-4 Visual
Идентификатор кодека : DIV3
Идентификатор кодека/Подсказка : DivX 3 Low
Продолжительность : 4 м. 16 с.
Битрейт : 1476 Кбит/сек
Ширина : 384 пикс.
Высота : 288 пикс.
Соотношение сторон : 4:3
Частота кадров : 25,000 кадр/сек
Цветовое пространство : YUV
Подвыборка цветности : 4:2:0
Битовая глубина : 8 бит
Метод сжатия : С потерями
Бит/(Пиксели*Кадры) : 0.534
Размер потока : 45,1 Мбайт (77%)

Аудио
Идентификатор : 1
Формат : PCM
Параметр Endianness формата : Little
Параметр Sign формата : Signed
Идентификатор кодека : 1
Идентификатор кодека/Подсказка : Microsoft
Продолжительность : 4 м. 16 с.
Вид битрейта : Постоянный
Битрейт : 352,8 Кбит/сек
Канал(ы) : 1 канал
Частота : 22,05 КГц
Битовая глубина : 16 бит
Размер потока : 10,8 Мбайт (18%)
Качество: TVRip
Формат: AVI
Видео кодек: DivX
Аудио кодек: PCM
Видео: 384 x 288 (4/3), 1476 Кбит/сек, 25 fps
Аудио: 353 kbps, 22050 Hz, Microsoft PCM Format




freetor.icu



Скачать Queen - The Show Must Go On через торрент http://2.firepic.org/2/images/2011-11/06/0besozcm9nga.jpg Скачать, смотреть онлайн Queen - The Show Must Go On [1991 г., Rock, TVRip] бесплантно в хорошем качестве Год выпуска: 1991Страна: ВеликобританияЖанр: RockПродолжительность: 0:04:16The Show Must Go On - песня английской рок-группы Queen с ... 4.7 10 3
Info! Золотая раздача, скачанное не засчитывается.
Торрент: Зарегистрирован [2011-11-06 12:44] · скачан: 50 раз
Статус: √ проверено
Размер: 59 MB
Как cкачать? Как скачать Queen - The Show Must Go On через торрент | UTorrent

28-11-2019 20:33  

Отключить всю рекламу на сайте

06-11-2011 12:53 Queen - The Show Must Go On Скачать торрент  

блин , на ютубе лучше кач-во((freetor.icu



06-11-2011 13:06 Queen - The Show Must Go On Скачать торрент  

a1kaida писал(а):

блин , на ютубе лучше кач-во((

довольствуемся тем что имеем...)freetor.icu



    Дорогой пользователь! Огромная просьба, поблагодарите релизера, оцените раздачу и оставьте свои комментарий, если Вы скачали Queen - The Show Must Go On через торрент бесплатно!
    Комментировать посты могут только пользователи прошедшие не сложную регистрацию
    Показать сообщения:    

    Queen - The Show Must Go On через торрент
    Скачать бесплатно Queen - The Show Must Go On
    Queen - The Show Must Go On скачать торрент
    Queen - The Show Must Go On смотреть онлайн
    Cкачать фильм Queen - The Show Must Go On бесплатно
    Queen - The Show Must Go On скачать торрент в хорошем качестве
    Queen - The Show Must Go On смотреть онлайн бесплатно в хорошем качестве


    Вы не можете начинать темы
    Вы не можете отвечать на сообщения
    Вы не можете редактировать свои сообщения
    Вы не можете удалять свои сообщения
    Вы не можете голосовать в опросах
    Вы не можете прикреплять файлы к сообщениям
    Вы можете скачивать файлы