>

5.6

iTunes

6.1

MVO

5.7

MVO

1

7.4

1 сезон

6.8

iTunes

7.2

1 сезон

13

6.7

1 сезон

8.3

RePack

30

Deluxe

pack

9.9

Лицензия

ВАЖНО

ИГРА 18+

pack

7.3

RePack

MK11

7.7

RePack

jed

7.8

RePack

fifa19

8.5

RePack

RDR2

RePack

NEED FOR SPEED™ PAYBACK

4 сезон

9 сезон

Бесстыжие 9 сезон

Все сериалы

все сериалы на PB.wtf

RePack

FAR CRY 5

Anonymous, добрый день, мы катастрофически не успеваем собрать деньги на оплату серверов, помогите нам пожалуйста 5,10,15р., для нас важна любая помощь . В качестве благодарности мы отключим Вам всю рекламу на сайте (укажите свой ник в строку Ваше имя)!

×
  
Magnet ссылка

Cradle Of Filth-From The Cradle To The Grave [2002 г., Vampyric Gothic Black Metal, DVD5] freetor.icu

Cradle Of Filth-From The Cradle To The Grave через торрент freetor.icu

Размер: 3.47 GB | Добавлен: 10 лет назад | Торрент скачан:11 раз
Смотреть онлайн Cradle Of Filth-From The Cradle To The Grave | Скачать    Ребята, помогите собрать деньги на оплату серверов!!!

31-08-2011 13:37 Cradle Of Filth-From The Cradle To The Grave Скачать торрент  

Cradle Of Filth-From The Cradle To The Grave
Страна: England
Жанр: Vampyric Gothic Black Metal
Продолжительность: 70 Minutes
Год выпуска: 2002 г.
Лейбл: Chrome Dreams
Описание: Bursting onto the scene in 1994 from the backwaters of rural Suffolk on the East Coast
of England, Cradle Of Filth have achieved world-wide respect and recognition paralleled only by the controversy, rage and hatred they have equally attracted throughout their chequered career to date. From The Cradle To The Grave investigates how this strange collective came to exist, what motivates them to continue and suggests where they might be going from here.
Треклист: 1.Intro/Hell On Earth
2.Ungodly Masters
3.The Devils Child
4.School Daze Revisited
5.Total Demo-Lition
6.Principle Of Evil
7.Dark Phaerytales
8.Nightmare Scenario
9.Self Expressionists
10.Blood Curdling Spirit
11.Masters Of Diplomacy
12.From The Cradle
13.Hiring And Firing
14.Nature Of The Beast
Доп. информация: The complete unauthorised biography of Cradle of Filth was produced in the Czech Republic
and features more than forty minutes of interviews with the band and those close to them.
It contains exclusive and previously unseen footage and new 'Insider' revelations on the band.
Разбивка на главы по трекам: нет
Качество : DVD5
Формат: DVD video
Видео кодек: MPEG2
Аудио кодек: AC3
Видео: MPEG 2, 720 pixels:480 pixels, 4:3, 6 006 Kbps, 29.970 fps
Аудио: AC-3, 448 Kbps, 48.0 KHz, 2 channels
General
Complete name : C:\Torrents\VIDEO_TS\VTS_01_4.VOB
Format : MPEG-PS
File size : 475 MiB
Duration : 10mn 6s
Overall bit rate : 6 573 Kbps
Video
ID : 224 (0xE0)
Format : MPEG Video
Format version : Version 2
Format profile : Main@Main
Format settings, BVOP : Yes
Format settings, Matrix : Default
Format settings, GOP : M=3, N=15
Duration : 10mn 5s
Bit rate mode : Constant
Bit rate : 6 006 Kbps
Width : 720 pixels
Height : 480 pixels
Display aspect ratio : 4:3
Frame rate : 29.970 fps
Standard : NTSC
Color space : YUV
Chroma subsampling : 4:2:0
Bit depth : 8 bits
Scan type : Interlaced
Scan order : Top Field First
Compression mode : Lossy
Bits/(Pixel*Frame) : 0.580
Stream size : 433 MiB (91%)
Audio
ID : 189 (0xBD)-128 (0x80)
Format : AC-3
Format/Info : Audio Coding 3
Mode extension : CM (complete main)
Muxing mode : DVD-Video
Duration : 10mn 6s
Bit rate mode : Constant
Bit rate : 448 Kbps
Channel(s) : 2 channels
Channel positions : Front: L R
Sampling rate : 48.0 KHz
Bit depth : 16 bits
Compression mode : Lossy
Delay relative to video : -517ms
Stream size : 32.4 MiB (7%)
Menu
freetor.icu



Скачать Cradle Of Filth-From The Cradle To The Grave через торрент http://i19.fastpic.ru/big/2011/0331/49/deec4ca45ec0976f06aa44bdfc5c7949.jpg Скачать, смотреть онлайн Cradle Of Filth-From The Cradle To The Grave [2002 г., Vampyric Gothic Black Metal, DVD5] бесплантно в хорошем качестве Описание: Bursting onto the scene in 1994 from the backwaters of rural Suffolk on the East Coastof England, Cradle Of Filth have achieved ... 5 10 2
Info! Золотая раздача, скачанное не засчитывается.
Торрент: Зарегистрирован [2011-08-31 13:37] · скачан: 11 раз
Статус: √ проверено
Размер: 3.47 GB
Как cкачать? Как скачать Cradle Of Filth-From The Cradle To The Grave через торрент | UTorrent

28-11-2019 20:33  

Отключить всю рекламу на сайте

    Дорогой пользователь! Огромная просьба, поблагодарите релизера, оцените раздачу и оставьте свои комментарий, если Вы скачали Cradle Of Filth-From The Cradle To The Grave через торрент бесплатно!
    Комментировать посты могут только пользователи прошедшие не сложную регистрацию
    Показать сообщения:    

    Cradle Of Filth-From The Cradle To The Grave через торрент
    Скачать бесплатно Cradle Of Filth-From The Cradle To The Grave
    Cradle Of Filth-From The Cradle To The Grave скачать торрент
    Cradle Of Filth-From The Cradle To The Grave смотреть онлайн
    Cкачать фильм Cradle Of Filth-From The Cradle To The Grave бесплатно
    Cradle Of Filth-From The Cradle To The Grave скачать торрент в хорошем качестве
    Cradle Of Filth-From The Cradle To The Grave смотреть онлайн бесплатно в хорошем качестве


    Вы не можете начинать темы
    Вы не можете отвечать на сообщения
    Вы не можете редактировать свои сообщения
    Вы не можете удалять свои сообщения
    Вы не можете голосовать в опросах
    Вы не можете прикреплять файлы к сообщениям
    Вы можете скачивать файлы