Всегда рабочее зеркало без VPN и Proxy просто перед .vidak.icu напиши любое слово или цифру, Пример http://ujtz.vidak.icu

MVO

MVO

1 сезон

1

1 сезон

iTunes

1 сезон

13

1 сезон

Deluxe

pack

Рекомендуем

Repack

30

ВАЖНО

RePack

MK11

RePack

jed

RePack

fifa19

RePack

RDR2

RePack

NEED FOR SPEED™ PAYBACK

Кинопоиск HD

6 сезон

 Острые козырьки 6 сезон

Все сериалы

все сериалы на PB.wtf

RePack

FAR CRY 5
  
Magnet ссылка

В ритме жизни / Physical / Сезон: 2 / Серии: 1-10 из 10 (Крэйг Гиллеспи, Лиза Джонсон, Стефани Коун) [2022, Драма, комедия, WEB-DL 1080p] DUB [SDI Media] freetor.icu

В ритме жизни через торрент freetor.icu

Раздают: 1 [ 0 KB/s ]
Размер: 24.42 GB | Добавлен: 4 д. назад | Торрент скачан:5 раз
Смотреть онлайн В ритме жизни | Скачать    Ребята, помогите собрать деньги на оплату серверов!!!

03-06-2022 06:26 В ритме жизни Скачать торрент  

В ритме жизни | Physical
Год выпуска: 2022
Страна: США
Выпущено: Fabrication, ITV Studios, Parasox, Tomorrow Studios
Жанр: Драма, комедия
Продолжительность: ~ 00:35:00
Перевод: Дублированный | SDI Media
Субтитры: Русские (Forced, Full, SDH), английские (Full, SDH), иврит, украинские

Режиссер: Крэйг Гиллеспи, Лиза Джонсон, Стефани Коун

rating

В ролях: Роуз Бирн, Рори Сковел, Дидре Фрил, Делла Саба, Лой Пуччи, Пол Спаркс, Джеффри Аренд, Эшли Лиао, Хью Б. Холуб, Карлос Антонио, Иэн Гомес, Блайт Ховард, Рейчел Килиан, Стефани Нэш, Эндрю Патрик Ралстон

Описание: Сан-Диего, 1980-е. Скромная и замученная домохозяйка Шейла покорно следует за своим супругом. Но в тихом омуте скрываются довольно смелые желания и дерзкие идеи, которыми женщина не спешит делиться с окружающими. Одолеваемая внутренними демонами и внушительным списком комплексов, Шейла находит путь к спасению через аэробику. Сначала она страстно увлекается упражнениями, а затем решает превратить новое хобби в настоящий бизнес.

Качество: WEB-DL 1080p
Формат: MKV

Видео: AVC, 1920x960 (2.000), 23.976 fps, ~9987 kbps
Аудио №1: E-AC3 ATMOS, 6 ch, 48 kHz, 768 kbps
Аудио №2: E-AC3 ATMOS, 6 ch, 48 kHz, 768 kbps
скриншот  скриншот  скриншот  скриншот  скриншот  скриншот  

Общее
Уникальный идентификатор : 250857369834658269135881965801981981760 (0xBCB95F3D960A08A9A723DAD57109B440)
Полное имя : D:Physical.S02.1080p.ATVP.WEB-DL.DDP5.1.H.264-EniaHD\Physical.S02E01.Dont.You.Want Me.1080p.ATVP.WEB-DL.DDP5.1.H.264-EniaHD.mkv
Формат : Matroska
Версия формата : Version 4
Размер файла : 2,68 Гбайт
Продолжительность : 33 м. 16 с.
Общий поток : 11,5 Мбит/сек
Название фильма : Physical S02E01 [Don't You Want Me] - EniaHD
Программа кодирования : mkvmerge v57.0.0 ('Till The End') 64-bit
Библиотека кодирования : libebml v1.4.2 + libmatroska v1.6.4

Видео
Идентификатор : 1
Формат : AVC
Формат/Информация : Advanced Video Codec
Профиль формата : [email protected]
Настройки формата : CABAC / 4 Ref Frames
Параметр CABAC формата : Да
Параметр RefFrames формата : 4 кадра
Идентификатор кодека : V_MPEG4/ISO/AVC
Продолжительность : 33 м. 16 с.
Битрейт : 9 987 Кбит/сек
Ширина : 1 920 пикселей
Высота : 960 пикселей
Соотношение сторон : 2,000
Режим частоты кадров : Постоянный
Частота кадров : 23,976 (24000/1001) кадра/сек
Цветовое пространство : YUV
Субдискретизация насыщенности : 4:2:0
Битовая глубина : 8 бит
Тип развёртки : Прогрессивная
Бит/(Пиксели*Кадры) : 0.221
Размер потока : 2,27 Гбайт (85%)
Default : Да
Forced : Нет
Цветовой диапазон : Limited
Основные цвета : BT.709
Характеристики трансфера : BT.709
Коэффициенты матрицы : BT.709

Аудио #1
Идентификатор : 2
Формат : E-AC-3 JOC
Формат/Информация : Enhanced AC-3 with Joint Object Coding
Коммерческое название : Dolby Digital Plus with Dolby Atmos
Идентификатор кодека : A_EAC3
Продолжительность : 33 м. 16 с.
Вид битрейта : Постоянный
Битрейт : 768 Кбит/сек
Каналы : 6 каналов
Channel layout : L R C LFE Ls Rs
Частота : 48,0 КГц
Частота кадров : 31,250 кадров/сек (1536 SPF)
Метод сжатия : С потерями
Размер потока : 183 Мбайт (7%)
Язык : Russian
Service kind : Complete Main
Default : Да
Forced : Нет
Complexity index : 16
Number of dynamic objects : 15
Bed channel count : 1 канал
Bed channel configuration : LFE

Аудио #2
Идентификатор : 3
Формат : E-AC-3 JOC
Формат/Информация : Enhanced AC-3 with Joint Object Coding
Коммерческое название : Dolby Digital Plus with Dolby Atmos
Идентификатор кодека : A_EAC3
Продолжительность : 33 м. 16 с.
Вид битрейта : Постоянный
Битрейт : 768 Кбит/сек
Каналы : 6 каналов
Channel layout : L R C LFE Ls Rs
Частота : 48,0 КГц
Частота кадров : 31,250 кадров/сек (1536 SPF)
Метод сжатия : С потерями
Размер потока : 183 Мбайт (7%)
Язык : English
Service kind : Complete Main
Default : Нет
Forced : Нет
Complexity index : 16
Number of dynamic objects : 15
Bed channel count : 1 канал
Bed channel configuration : LFE

Текст #1
Идентификатор : 4
Формат : UTF-8
Идентификатор кодека : S_TEXT/UTF8
Идентификатор кодека/Информация : UTF-8 Plain Text
Заголовок : Forced
Язык : Russian
Default : Да
Forced : Нет

Текст #2
Идентификатор : 5
Формат : UTF-8
Идентификатор кодека : S_TEXT/UTF8
Идентификатор кодека/Информация : UTF-8 Plain Text
Язык : Russian
Default : Нет
Forced : Нет

Текст #3
Идентификатор : 6
Формат : UTF-8
Идентификатор кодека : S_TEXT/UTF8
Идентификатор кодека/Информация : UTF-8 Plain Text
Заголовок : SDH
Язык : Russian
Default : Нет
Forced : Нет

Текст #4
Идентификатор : 7
Формат : UTF-8
Идентификатор кодека : S_TEXT/UTF8
Идентификатор кодека/Информация : UTF-8 Plain Text
Заголовок : Forced
Язык : English
Default : Нет
Forced : Нет

Текст #5
Идентификатор : 8
Формат : UTF-8
Идентификатор кодека : S_TEXT/UTF8
Идентификатор кодека/Информация : UTF-8 Plain Text
Язык : English
Default : Нет
Forced : Нет

Текст #6
Идентификатор : 9
Формат : UTF-8
Идентификатор кодека : S_TEXT/UTF8
Идентификатор кодека/Информация : UTF-8 Plain Text
Заголовок : SDH
Язык : English
Default : Нет
Forced : Нет

Текст #7
Идентификатор : 10
Формат : UTF-8
Идентификатор кодека : S_TEXT/UTF8
Идентификатор кодека/Информация : UTF-8 Plain Text
Язык : Hebrew
Default : Нет
Forced : Нет

Текст #8
Идентификатор : 11
Формат : UTF-8
Идентификатор кодека : S_TEXT/UTF8
Идентификатор кодека/Информация : UTF-8 Plain Text
Язык : Ukrainian
Default : Нет
Forced : Нет

Внимание! Раздача ведётся путём добавления новых серий; при каждом добавлении создаётся новый торрент.
Чтобы начать докачку новой серии, пользователям необходимо сделать следующее:
1. Остановить скачивание;
2. Удалить старый торрент у себя из клиента (старые серии удалять не надо);
3. Скачать новый торрент и запустить его у себя в клиенте вместо старого, при этом указать клиенту путь в старую папку куда и должно происходить скачивание новых серий. Ваш клиент при этом должен произвести хеширование (проверку) старой папки и будет докачивать только те серии, которых у вас ещё нет. Старые серии при этом не удаляются, а продолжают раздаваться! Eсли вы уже удалили старые серии, то предотвратить повторную закачку старых серий можно, отжав галочку в соответствующих местах при запуске нового торрента.

freetor.icu



Скачать В ритме жизни через торрент https://i5.imageban.ru/out/2021/06/24/ad212a092f948d98b85ee283f27416f8.png Скачать, смотреть онлайн В ритме жизни бесплантно в хорошем качестве Описание: Сан-Диего, 1980-е. Скромная и замученная домохозяйка Шейла покорно следует за своим супругом. Но в тихом омуте скрываются ... 7.8 10 4
Info! Золотая раздача, скачанное не засчитывается.
Торрент: Зарегистрирован [2022-08-05 03:22] · скачан: 5 раз
Статус: √ проверено
Размер: 24.42 GB
Как cкачать? Как скачать В ритме жизни через торрент | UTorrent

28-11-2019 20:33  

Отключить вcю реклaмy на сайте

    Дорогой пользователь! Огромная просьба, поблагодарите релизера, оцените раздачу и оставьте свои комментарий, если Вы скачали В ритме жизни через торрент бесплатно!
    Комментировать посты могут только пользователи прошедшие не сложную регистрацию
    Показать сообщения:    

    В ритме жизни через торрент
    Скачать бесплатно В ритме жизни
    В ритме жизни скачать торрент
    В ритме жизни смотреть онлайн
    Cкачать фильм В ритме жизни бесплатно
    В ритме жизни скачать торрент в хорошем качестве
    В ритме жизни смотреть онлайн бесплатно в хорошем качестве


    Вы не можете начинать темы
    Вы не можете отвечать на сообщения
    Вы не можете редактировать свои сообщения
    Вы не можете удалять свои сообщения
    Вы не можете голосовать в опросах
    Вы не можете прикреплять файлы к сообщениям
    Вы можете скачивать файлы