Всегда рабочее зеркало просто перед .vidak.icu напиши любое слово или цифру, Пример http://ami.vidak.icu

>

7.4

iTunes

7.4

2 сезон

6.6

iTunes

1

7.4

2 сезон

7.2

iTunes

6.0

MVO

13

6.1

iTunes

8.3

Пиратка

30

ULTIMATE

pack

9.9

Лицензия

ВАЖНО

ИГРА 18+

pack

7.3

RePack

MK11

7.7

RePack

jed

7.8

RePack

fifa19

8.5

RePack

RDR2

RePack

NEED FOR SPEED™ PAYBACK

1 сезон

9 сезон

Бесстыжие 9 сезон

Все сериалы

все сериалы на PB.wtf

RePack

FAR CRY 5

Anonymous, добрый вечер, мы катастрофически не успеваем собрать деньги на оплату серверов, помогите нам пожалуйста 5,10,15р., для нас важна любая помощь . В качестве благодарности мы отключим Вам всю рекламу на сайте (укажите свой ник в строку Ваше имя)!

×
  
Magnet ссылка

Хэллоуин убивает / Halloween Kills (Дэвид Гордон Грин) [2021, Ужасы, триллер, криминал, BDRip 720p] DUB [Пифагор] freetor.icu

Хэллоуин убивает через торрент freetor.icu

Раздают: 1 [ 0 KB/s ]
Размер: 4.8 GB | Добавлен: 12 д. назад | Торрент скачан:33 раза
Смотреть онлайн Хэллоуин убивает | Скачать    Ребята, помогите собрать деньги на оплату серверов!!!

11-01-2022 03:19 Хэллоуин убивает Скачать торрент  

Хэллоуин убивает | Halloween Kills
Год выпуска: 2021
Страна: Великобритания, США
Выпущено: Universal Pictures, Miramax, Blumhouse Productions
Жанр: Ужасы, триллер, криминал
Продолжительность: 01:45:07
Перевод: Дублированный | Пифагор
Субтитры: Русские (Forced, 2 x Full), английские

Режиссер: Дэвид Гордон Грин

rating

В ролях: Джейми Ли Кёртис, Джуди Грир, Энди Мэтичак, Энтони Майкл Холл, Джеймс Джуд Кортни, Ник Касл, Эйрон Армстронг, Уилл Пэттон, Томас Манн, Джим Каммингс (V)

Описание: Лори Строуд, ее дочь Карен и внучка Эллисон поймали Майкла Майерса в ловушку и оставили гореть в подвале их дома. Раненая Лори отправляется в больницу, уверенная в том, что ее преследователь наконец-то мертв. Но Майклу удается освободиться, и его кровавая расправа продолжается. Лори должна справиться с болью и снова защищаться, однако, в этот раз весь город готов дать отпор неудержимому монстру. Женщины семьи Строуд присоединяются к группе выживших, которые хотят взять правосудие в свои руки, выследить Майкла и остановить его раз и навсегда. Зло должно умереть сегодня.

Качество: BDRip 720p
Формат: MKV

Видео: MPEG-4 AVC, 1280x536, 5000 Kbit/s, 23.976 fps
Аудио #01: 48 kHz, E-AC3, 5.1, 448 Kbps | Дублированный | Пифагор | RUS |
Аудио #02: 48 kHz, AC3, 5.1, 448 Kbps | Дублированный | Пифагор | RUS |
Аудио #03: 48 kHz, AC3, 5.1, 640 Kbps | Оригинал | ENG |
скриншот  скриншот  скриншот  скриншот  скриншот  скриншот  

General
Unique ID : 282190052772395635692597069763574201336 (0xD44BD3C797216D69C061262D18277BF8)
Complete name : E:VideoHalloween.Kills.2021.BDRip.720p.seleZen.mkv
Format : Matroska
Format version : Version 4
File size : 4.80 GiB
Duration : 1 h 45 min
Overall bit rate : 6 536 kb/s
Movie name : Halloween Kills 2021 from seleZen
Encoded date : UTC 2022-01-11 03:00:20
Writing application : mkvmerge v59.0.0 ('Shining Star') 64-bit
Writing library : libebml v1.4.2 + libmatroska v1.6.4

Video
ID : 1
Format : AVC
Format/Info : Advanced Video Codec
Format profile : [email protected]
Format settings : CABAC / 12 Ref Frames
Format settings, CABAC : Yes
Format settings, Reference : 12 frames
Codec ID : V_MPEG4/ISO/AVC
Duration : 1 h 45 min
Bit rate : 5 000 kb/s
Width : 1 280 pixels
Height : 536 pixels
Display aspect ratio : 2.40:1
Frame rate mode : Constant
Frame rate : 23.976 (24000/1001) FPS
Color space : YUV
Chroma subsampling : 4:2:0
Bit depth : 8 bits
Scan type : Progressive
Bits/(Pixel*Frame) : 0.304
Stream size : 3.67 GiB (76%)
Writing library : x264 core 146 -from seleZen
Encoding settings : cabac=1 / ref=12 / deblock=1:-2:-2 / analyse=0x3:0x133 / me=umh / subme=10 / psy=1 / psy_rd=1.02:0.02 / mixed_ref=1 / me_range=32 / chroma_me=1 / trellis=2 / 8x8dct=1 / cqm=0 / deadzone=21,11 / fast_pskip=0 / chroma_qp_offset=-3 / threads=36 / lookahead_threads=4 / sliced_threads=0 / nr=0 / decimate=0 / interlaced=0 / bluray_compat=0 / constrained_intra=0 / bframes=8 / b_pyramid=2 / b_adapt=2 / b_bias=0 / direct=3 / weightb=1 / open_gop=0 / weightp=2 / keyint=240 / keyint_min=23 / scenecut=40 / intra_refresh=0 / rc_lookahead=50 / rc=2pass / mbtree=0 / bitrate=5000 / ratetol=1.0 / qcomp=0.60 / qpmin=0 / qpmax=51 / qpstep=4 / cplxblur=20.0 / qblur=0.5 / vbv_maxrate=50000 / vbv_bufsize=62500 / nal_hrd=none / filler=0 / ip_ratio=1.40 / pb_ratio=1.30 / aq=3:0.80
Language : English
Default : Yes
Forced : No

Audio #1
ID : 2
Format : E-AC-3
Format/Info : Enhanced AC-3
Commercial name : Dolby Digital Plus
Codec ID : A_EAC3
Duration : 1 h 45 min
Bit rate mode : Constant
Bit rate : 448 kb/s
Channel(s) : 6 channels
Channel layout : L R C LFE Ls Rs
Sampling rate : 48.0 kHz
Frame rate : 31.250 FPS (1536 SPF)
Compression mode : Lossy
Stream size : 337 MiB (7%)
Title : Dub [Pifagor]
Language : Russian
Service kind : Complete Main
Default : Yes
Forced : Yes

Audio #2
ID : 3
Format : AC-3
Format/Info : Audio Coding 3
Commercial name : Dolby Digital
Codec ID : A_AC3
Duration : 1 h 45 min
Bit rate mode : Constant
Bit rate : 448 kb/s
Channel(s) : 6 channels
Channel layout : L R C LFE Ls Rs
Sampling rate : 48.0 kHz
Frame rate : 31.250 FPS (1536 SPF)
Compression mode : Lossy
Stream size : 337 MiB (7%)
Title : Dub [Pifagor]
Language : Russian
Service kind : Complete Main
Default : No
Forced : No

Audio #3
ID : 4
Format : AC-3
Format/Info : Audio Coding 3
Commercial name : Dolby Digital
Codec ID : A_AC3
Duration : 1 h 45 min
Bit rate mode : Constant
Bit rate : 640 kb/s
Channel(s) : 6 channels
Channel layout : L R C LFE Ls Rs
Sampling rate : 48.0 kHz
Frame rate : 31.250 FPS (1536 SPF)
Compression mode : Lossy
Stream size : 481 MiB (10%)
Title : Original
Language : English
Service kind : Complete Main
Default : No
Forced : No

Text #1
ID : 5
Format : UTF-8
Codec ID : S_TEXT/UTF8
Codec ID/Info : UTF-8 Plain Text
Duration : 1 h 37 min
Bit rate : 0 b/s
Count of elements : 14
Stream size : 611 Bytes (0%)
Title : Forced
Language : Russian
Default : Yes
Forced : Yes

Text #2
ID : 6
Format : UTF-8
Codec ID : S_TEXT/UTF8
Codec ID/Info : UTF-8 Plain Text
Duration : 1 h 39 min
Bit rate : 82 b/s
Count of elements : 1268
Stream size : 59.7 KiB (0%)
Title : Full [Official]
Language : Russian
Default : No
Forced : No

Text #3
ID : 7
Format : UTF-8
Codec ID : S_TEXT/UTF8
Codec ID/Info : UTF-8 Plain Text
Duration : 1 h 38 min
Bit rate : 83 b/s
Count of elements : 1451
Stream size : 59.9 KiB (0%)
Title : Full [MENINSUB]
Language : Russian
Default : No
Forced : No

Text #4
ID : 8
Format : UTF-8
Codec ID : S_TEXT/UTF8
Codec ID/Info : UTF-8 Plain Text
Duration : 1 h 38 min
Bit rate : 54 b/s
Count of elements : 1449
Stream size : 39.3 KiB (0%)
Title : Full
Language : English
Default : No
Forced : No

Text #5
ID : 9
Format : UTF-8
Codec ID : S_TEXT/UTF8
Codec ID/Info : UTF-8 Plain Text
Duration : 1 h 45 min
Bit rate : 65 b/s
Count of elements : 1874
Stream size : 50.2 KiB (0%)
Title : SDH
Language : English
Default : No
Forced : No

Menu
00:00:00.000 : Chapters 01
00:07:16.227 : Chapters 02
00:14:09.015 : Chapters 03
00:18:53.549 : Chapters 04
00:24:31.011 : Chapters 05
00:30:45.552 : Chapters 06
00:36:15.048 : Chapters 07
00:40:43.650 : Chapters 08
00:45:06.370 : Chapters 09
00:47:22.548 : Chapters 10
00:53:21.281 : Chapters 11
00:59:46.666 : Chapters 12
01:04:18.021 : Chapters 13
01:09:11.022 : Chapters 14
01:13:56.766 : Chapters 15
01:19:53.080 : Chapters 16
01:24:03.372 : Chapters 17
01:27:44.342 : Chapters 18
01:33:01.951 : Chapters 19
01:40:06.334 : Chapters 20

freetor.icu



Скачать Хэллоуин убивает через торрент https://i116.fastpic.org/big/2021/1216/e8/7aed9d7a6f28f4f9cd528a6735a07fe8.jpg Скачать, смотреть онлайн Хэллоуин убивает бесплантно в хорошем качестве Описание: Лори Строуд, ее дочь Карен и внучка Эллисон поймали Майкла Майерса в ловушку и оставили гореть в подвале их дома. Раненая Лори ... 10 10 3
Торрент: Зарегистрирован [2022-01-11 03:19] · скачан: 33 раз
Статус: √ проверено
Размер: 4.8 GB
Как cкачать? Как скачать Хэллоуин убивает через торрент | UTorrent

% Раздел Тема Автор DL S | L
Фильмы 2021 [DVDrip, WEB-DLRip, HDrip] (DUB, MVO) [ 747 MB ] Хэллоуин убивает / Halloween Kills [2021 BDRip] DUB [Пифагор] bober100 Скачать
1 | 0
Фильмы (Blu-ray, BD-Remux, HDDVD) [ 22.28 GB ] Хэллоуин убивает / Halloween Kills [2021 BD Remux 1080p] DUB [Пифагор] bober100 Скачать
1 | 0
Ultra HD (UHD: 2K, 4K, 8K) — видео сверхвысокой чёткости [ 49.75 GB ] Хэллоуин убивает / Halloween Kills [2021 UHD BDRemux 2160p ] DUB [Пифагор] bober100 Скачать
1 | 0
Ultra HD (UHD: 2K, 4K, 8K) — видео сверхвысокой чёткости [ 58.07 GB ] Хэллоуин убивает / Halloween Kills [2021 UHD BDRemux 2160p ] DUB [Пифагор] bober100 Скачать
1 | 0
Фильмы [HD 720p, 1080p] (Хороший звук DUB, MVO) [ 11.98 GB ] Хэллоуин убивает / Halloween Kills [2021 BDRip 1080p] DUB [Пифагор] bober100 Скачать
3 | 1
Фильмы 2021 [DVDrip, WEB-DLRip, HDrip] (DUB, MVO) [ 1.46 GB ] Хэллоуин убивает / Halloween Kills [2021 BDRip] - [ / Пифагор] Twi7ter Скачать
17 | 1
Фильмы 2021 [DVDrip, WEB-DLRip, HDrip] (DUB, MVO) [ 1.45 GB ] Хэллоуин убивает / Halloween Kills [2021 WEB-DLRip-AVC] killermax2013 Скачать
1 | 0

28-11-2019 20:33  

Отключить всю рекламу на сайте

    Дорогой пользователь! Огромная просьба, поблагодарите релизера, оцените раздачу и оставьте свои комментарий, если Вы скачали Хэллоуин убивает через торрент бесплатно!
    Комментировать посты могут только пользователи прошедшие не сложную регистрацию
    Показать сообщения:    

    Хэллоуин убивает через торрент
    Скачать бесплатно Хэллоуин убивает
    Хэллоуин убивает скачать торрент
    Хэллоуин убивает смотреть онлайн
    Cкачать фильм Хэллоуин убивает бесплатно
    Хэллоуин убивает скачать торрент в хорошем качестве
    Хэллоуин убивает смотреть онлайн бесплатно в хорошем качестве


    Вы не можете начинать темы
    Вы не можете отвечать на сообщения
    Вы не можете редактировать свои сообщения
    Вы не можете удалять свои сообщения
    Вы не можете голосовать в опросах
    Вы не можете прикреплять файлы к сообщениям
    Вы можете скачивать файлы