Всегда рабочее зеркало просто перед .vidak.icu напиши любое слово или цифру, Пример http://een.vidak.icu

>

7.4

iTunes

7.4

2 сезон

9.4

1 сезон

1

7.4

2 сезон

7.2

iTunes

6.0

MVO

13

6.1

iTunes

8.3

Пиратка

30

ULTIMATE

pack

9.9

Лицензия

ВАЖНО

ИГРА 18+

pack

7.3

RePack

MK11

7.7

RePack

jed

7.8

RePack

fifa19

8.5

RePack

RDR2

RePack

NEED FOR SPEED™ PAYBACK

1 сезон

9 сезон

Бесстыжие 9 сезон

Все сериалы

все сериалы на PB.wtf

RePack

FAR CRY 5

Anonymous, добрый день, мы катастрофически не успеваем собрать деньги на оплату серверов, помогите нам пожалуйста 5,10,15р., для нас важна любая помощь . В качестве благодарности мы отключим Вам всю рекламу на сайте (укажите свой ник в строку Ваше имя)!

×
  
Magnet ссылка

Спенсер / Spencer (Пабло Ларраин) [2021, Биография, драма, мелодрама, WEB-DL 1080p] DUB [KION] freetor.icu

Спенсер через торрент freetor.icu

Раздают: 4 [ 297 KB/s ]
Размер: 10.07 GB | Добавлен: 7 д. назад | Торрент скачан:53 раза
Смотреть онлайн Спенсер | Скачать    Ребята, помогите собрать деньги на оплату серверов!!!

11-01-2022 01:59 Спенсер Скачать торрент  

Спенсер
Spencer

Год выпуска: 2021
Страна: Великобритания, Германия, США, Чили
Выпущено: FABULA, FilmNation Entertainment, Komplizen Film, Shoebox Films
Жанр: Биография, драма, мелодрама
Продолжительность: 01:56:34
Перевод: Дублированный | KION
Субтитры: Русские (Full)

Режиссер: Пабло Ларраин

rating

В ролях: Кристен Стюарт, Джек Фартинг, Тимоти Сполл, Джек Нилен, Фредди Спрай, Шон Харрис, Стелла Гонет, Рихард Заммель, Элизабет Беррингтон, Лоре Стефанек

Описание: Брак принцессы Дианы и принца Чарльза трещит по швам. Злые языки судачат о романе на стороне и прогнозируют развод. Тем не менее, на рождественские праздники в поместье Сандрингем королевская семья изображает мир. Они едят и пьют за одним столом, традиционно выезжают на охоту, но сможет ли Диана продолжать эту игру?

Качество: WEB-DL 1080p
Формат: MKV

Видео: MPEG-4 AVC, 11.1 Мb/s, 1800x1080, 24.000 fps
Аудио #01: 48 kHz, AC3, 5.1, 640 Kbps | Дублированный | RUS |
Аудио #02: 48 kHz, Е-AC3, 5.1, 640 Kbps | Оригинал | ENG |
скриншот  скриншот  скриншот  скриншот  

Complete name : Spencer.2021.AMZN.WEB-DL.1080p.ELEKTRI4KA.UNIONGANG.mkv
Format : Matroska
Format version : Version 4
File size : 10.1 GiB
Duration : 1 h 56 min
Overall bit rate : 12.4 Mb/s
Movie name : Spencer.2021.AMZN.WEB-DL.1080p.ELEKTRI4KA.UNIONGANG.
Encoded date : UTC 2022-01-10 22:17:05
Writing application : mkvmerge v8.3.0 ('Over the Horizon') 32bit
Writing library : libebml v1.3.1 + libmatroska v1.4.2

Video
ID : 1
Format : AVC
Format/Info : Advanced Video Codec
Format profile : [email protected]
Format settings : CABAC / 4 Ref Frames
Format settings, CABAC : Yes
Format settings, Reference frames : 4 frames
Codec ID : V_MPEG4/ISO/AVC
Duration : 1 h 56 min
Bit rate : 11.1 Mb/s
Width : 1 800 pixels
Height : 1 080 pixels
Display aspect ratio : 5:3
Frame rate mode : Constant
Frame rate : 24.000 FPS
Color space : YUV
Chroma subsampling : 4:2:0
Bit depth : 8 bits
Scan type : Progressive
Bits/(Pixel*Frame) : 0.238
Stream size : 9.02 GiB (90%)
Default : Yes
Forced : No
Color range : Limited
Color primaries : BT.709
Transfer characteristics : BT.709
Matrix coefficients : BT.709

Audio #1
ID : 2
Format : AC-3
Format/Info : Audio Coding 3
Commercial name : Dolby Digital
Codec ID : A_AC3
Duration : 1 h 56 min
Bit rate mode : Constant
Bit rate : 640 kb/s
Channel(s) : 6 channels
Channel layout : L R C LFE Ls Rs
Sampling rate : 48.0 kHz
Frame rate : 31.250 FPS (1536 SPF)
Compression mode : Lossy
Stream size : 534 MiB (5%)
Title : DUB (KION)
Language : Russian
Service kind : Complete Main
Default : Yes
Forced : Yes

Audio #2
ID : 3
Format : E-AC-3
Format/Info : Enhanced AC-3
Commercial name : Dolby Digital Plus
Codec ID : A_EAC3
Duration : 1 h 56 min
Bit rate mode : Constant
Bit rate : 640 kb/s
Channel(s) : 6 channels
Channel layout : L R C LFE Ls Rs
Sampling rate : 48.0 kHz
Frame rate : 31.250 FPS (1536 SPF)
Compression mode : Lossy
Stream size : 534 MiB (5%)
Title : Original
Language : English
Service kind : Complete Main
Default : No
Forced : No

Text
ID : 4
Format : UTF-8
Codec ID : S_TEXT/UTF8
Codec ID/Info : UTF-8 Plain Text
Duration : 1 h 54 min
Bit rate : 61 b/s
Count of elements : 1105
Stream size : 51.7 KiB (0%)
Title : Full
Language : Russian
Default : No
Forced : No

Menu
00:00:00.000 : en:Studio Logo
00:00:52.000 : en:Opening Credits
00:01:26.000 : en:Scene 3
00:10:19.000 : en:Scene 4
00:13:40.000 : en:Scene 5
00:17:05.000 : en:Scene 6
00:22:43.000 : en:Scene 7
00:30:20.000 : en:Scene 8
00:36:20.000 : en:Scene 9
00:41:08.000 : en:Scene 10
00:47:18.000 : en:Scene 11
00:52:43.000 : en:Scene 12
00:56:34.000 : en:Scene 13
01:02:16.000 : en:Scene 14
01:03:44.000 : en:Scene 15
01:08:36.000 : en:Scene 16
01:19:34.000 : en:Scene 17
01:22:47.000 : en:Scene 18
01:33:09.000 : en:Scene 19
01:39:09.000 : en:Scene 20
01:50:13.000 : en:End Credits

freetor.icu



Скачать Спенсер через торрент https://i116.fastpic.org/big/2021/1126/01/2223d7517f49f349d68ac421679db101.png Скачать, смотреть онлайн Спенсер бесплантно в хорошем качестве Описание: Брак принцессы Дианы и принца Чарльза трещит по швам. Злые языки судачат о романе на стороне и прогнозируют развод. Тем не менее, ... 8.2 10 5
Торрент: Зарегистрирован [2022-01-11 01:59] · скачан: 53 раз
Статус: √ проверено
Размер: 10.07 GB
Как cкачать? Как скачать Спенсер через торрент | UTorrent

% Раздел Тема Автор DL S | L
Фильмы 2021 [DVDrip, WEB-DLRip, HDrip] (DUB, MVO) [ 2.18 GB ] Спенсер / Spencer [2021 Биография BDRip] DUB [Кириллица / KION] bober100 Скачать
5 | 0
Фильмы 2021 [DVDrip, WEB-DLRip, HDrip] (DUB, MVO) [ 1.46 GB ] Спенсер / Spencer [2021 Биография BDRip] DUB [Кириллица / KION] bober100 Скачать
1 | 0
Фильмы (WEB-DL 720p, 1080p) [ 4.88 GB ] Правосудие Спенсера / Spenser Confidential [2020 WEB-DL 1080p] [MVO] killermax2013 Скачать
2 | 0
T Фильмы (мультфильмы) cо спонсором показа (Новинки AVI/MKV) [ 5.8 GB ] Правосудие Спенсера / Spenser Confidential [2020 WEB-DL 720p] DUB [Line] bober100 Скачать
1 | 0
T Фильмы (мультфильмы) cо спонсором показа (Новинки AVI/MKV) [ 7.78 GB ] Правосудие Спенсера / Spenser Confidential [2020 WEB-DL 1080p] DUB [Line] bober100 Скачать
2 | 0
Фильмы с авторской озвучкой [ 2.18 GB ] Правосудие Спенсера / Spenser Confidential [2020 WEB-DLRip] [AVO] killermax2013 Скачать
1 | 0
T Фильмы (мультфильмы) cо спонсором показа (Новинки AVI/MKV) [ 2.05 GB ] Правосудие Спенсера / Spenser Confidential [2020 WEB-DLRip] DUB [Line] bober100 Скачать
2 | 0

28-11-2019 20:33  

Отключить всю рекламу на сайте

    Дорогой пользователь! Огромная просьба, поблагодарите релизера, оцените раздачу и оставьте свои комментарий, если Вы скачали Спенсер через торрент бесплатно!
    Комментировать посты могут только пользователи прошедшие не сложную регистрацию
    Показать сообщения:    

    Спенсер через торрент
    Скачать бесплатно Спенсер
    Спенсер скачать торрент
    Спенсер смотреть онлайн
    Cкачать фильм Спенсер бесплатно
    Спенсер скачать торрент в хорошем качестве
    Спенсер смотреть онлайн бесплатно в хорошем качестве


    Вы не можете начинать темы
    Вы не можете отвечать на сообщения
    Вы не можете редактировать свои сообщения
    Вы не можете удалять свои сообщения
    Вы не можете голосовать в опросах
    Вы не можете прикреплять файлы к сообщениям
    Вы можете скачивать файлы