Всегда рабочее зеркало просто перед .vidak.icu напиши любое слово или цифру, Пример http://7x4.vidak.icu

>

7.4

iTunes

7.4

2 сезон

6.6

iTunes

1

7.4

2 сезон

7.2

iTunes

6.0

MVO

13

6.1

iTunes

8.3

Пиратка

30

ULTIMATE

pack

9.9

Лицензия

ВАЖНО

ИГРА 18+

pack

7.3

RePack

MK11

7.7

RePack

jed

7.8

RePack

fifa19

8.5

RePack

RDR2

RePack

NEED FOR SPEED™ PAYBACK

1 сезон

9 сезон

Бесстыжие 9 сезон

Все сериалы

все сериалы на PB.wtf

RePack

FAR CRY 5

Anonymous, доброй ночи, мы катастрофически не успеваем собрать деньги на оплату серверов, помогите нам пожалуйста 5,10,15р., для нас важна любая помощь . В качестве благодарности мы отключим Вам всю рекламу на сайте (укажите свой ник в строку Ваше имя)!

×
  
Magnet ссылка

Бим (Пёс в законе) / Сезон: 1 / Серии: 1-20 из 20 (Павел Дроздов) [2021, Детектив, SATRip] freetor.icu

Бим через торрент freetor.icu

Раздают: 8 [ 95 KB/s ]
Размер: 11.72 GB | Добавлен: 8 д. назад | Торрент скачан:32 раза
Смотреть онлайн Бим | Скачать    Ребята, помогите собрать деньги на оплату серверов!!!

10-01-2022 13:01 Бим Скачать торрент  

Бим
Пёс в законе

Год выпуска: 2021
Страна: Россия
Выпущено: Киностудия «Киностудия КИТ»
Жанр: Детектив
Продолжительность: ~ 00:48:00 серия
Перевод: Не требуется
Субтитры: отсутствуют

Режиссер: Павел Дроздов



В ролях: Денис Никифоров, Александр Армер, Андрей Багиров, Надя Славецкая, Татьяна Яхина, Александр Денисенко (II), Наталия Печерская, Александр Богданов (II), Екатерина Кожемякина, Андрей Иванов

Описание: В полицейском участке приморского портового города ходят слухи, что капитана Макара Климова сослали к ним из Москвы из-за романа с женой большого начальника с Петровки. Правда это или нет — никто не знает. На юге Макару нравится: свежий воздух, красивые женщины, нет столичной суеты. А дом, в который его поселили, находится прямо на берегу моря. Первое впечатление от тихой провинциальной жизни у Климова быстро проходит: контрабанда, наркотики, торговля людьми — целый криминальный набор, бороться с которым в этом городке приходится практически в одиночку. Но все же у Макара есть верный друг, который помогает ему во всем, — пес по кличке БиМ! Во время задержаний он догонит любого, кто решит убежать, не пройдет мимо контейнера с наркотиками и на мелкие проступки самого Макара реагирует осуждающе, не давая напарнику «расслабиться».

Качество: SATRip
Формат: AVI

Видео: XviD, ~ 1650 Кбит/с, 720x400
Аудио: MP3, 2 ch, 192 Кбит/с
скриншот  скриншот  скриншот  скриншот  

Общее
Полное имя : D:\Bim.2021.XviD.SATRip.25Kuzmich\Bim.e01.XviD.SATRip.25Kuzmich.avi
Формат : AVI
Формат/Информация : Audio Video Interleave
Размер файла : 600 Мбайт
Продолжительность : 48 м. 10 с.
Общий поток : 1 742 Кбит/сек
Программа кодирования : VirtualDubMod 1.5.10.3 | www.virtualdub-fr.org || (build 2550/release)
Библиотека кодирования : VirtualDubMod build 2550/release

Видео
Идентификатор : 0
Формат : MPEG-4 Visual
Профиль формата : Advanced [email protected]
Настройки формата : BVOP1
Параметр BVOP формата : 1
Параметр QPel формата : Нет
Параметр GMC формата : Без точки перехода
Параметр матрицы формата : Default (MPEG)
Идентификатор кодека : XVID
Идентификатор кодека/Подсказка : XviD
Продолжительность : 48 м. 10 с.
Битрейт : 1 672 Кбит/сек
Ширина : 720 пикселей
Высота : 400 пикселей
Соотношение сторон : 16:9
Частота кадров : 25,000 кадров/сек
Цветовое пространство : YUV
Субдискретизация насыщенности : 4:2:0
Битовая глубина : 8 бит
Тип развёртки : Прогрессивная
Метод сжатия : С потерями
Бит/(Пиксели*Кадры) : 0.204
Размер потока : 507 Мбайт (85%)
Библиотека кодирования : XviD 73

Аудио
Идентификатор : 1
Формат : MPEG Audio
Версия формата : Version 1
Профиль формата : Layer 3
Настройки формата : Joint stereo / MS Stereo
Идентификатор кодека : 55
Идентификатор кодека/Подсказка : MP3
Продолжительность : 48 м. 10 с.
Вид битрейта : Постоянный
Битрейт : 192 Кбит/сек
Каналы : 2 канала
Частота : 48,0 КГц
Частота кадров : 41,667 кадра/сек (1152 SPF)
Метод сжатия : С потерями
Размер потока : 66,2 Мбайт (11%)
Выравнивание : Соединение по промежуткам
Библиотека кодирования : LAME3.99r
Настройки программы : -m j -V 4 -q 2 -lowpass 18.6 -b 192

Внимание! Раздача ведётся путём добавления новых серий; при каждом добавлении создаётся новый торрент.
Чтобы начать докачку новой серии, пользователям необходимо сделать следующее:
1. Остановить скачивание;
2. Удалить старый торрент у себя из клиента (старые серии удалять не надо);
3. Скачать новый торрент и запустить его у себя в клиенте вместо старого, при этом указать клиенту путь в старую папку куда и должно происходить скачивание новых серий. Ваш клиент при этом должен произвести хеширование (проверку) старой папки и будет докачивать только те серии, которых у вас ещё нет. Старые серии при этом не удаляются, а продолжают раздаваться! Eсли вы уже удалили старые серии, то предотвратить повторную закачку старых серий можно, отжав галочку в соответствующих местах при запуске нового торрента.

freetor.icu



Скачать Бим через торрент https://i116.fastpic.org/big/2022/0110/1c/7912b57930daeb191948102dac67d91c.jpg Скачать, смотреть онлайн Бим бесплантно в хорошем качестве Описание: В полицейском участке приморского портового города ходят слухи, что капитана Макара Климова сослали к ним из Москвы из-за романа ... 10 10 10
Торрент: Зарегистрирован [2022-01-15 04:13] · скачан: 32 раз
Статус: √ проверено
Размер: 11.72 GB
Как cкачать? Как скачать Бим через торрент | UTorrent

% Раздел Тема Автор DL S | L
Зарубежные сериалы [ 10.74 GB ] Однажды в сказке / В Некотором Царстве / Once Upon A Time / Сезон: 1 / Эпизод 1-22 [2011 WEB-DLRip] wekotila Скачать
1 | 0
Фильмы до 2000 г. [ 1.53 GB ] Мой любимый марсианин / My Favorite Martian [1999 DVDRip] Jhamal Скачать
1 | 0
Зарубежные сериалы [ 9.07 GB ] Герои / Heroes / Сезон: 1 / Серии: 1-23 [2007 DVDRip] DUB + Оригинал Mr. Freeman Скачать
1 | 0
Детская литература [ 635 MB ] Любимые сказки Walt Disney. [2009] Инсайдер Скачать
1 | 0
Зарубежные сериалы [ 32.04 GB ] В Некотором Царстве / Once Upon a Time / 1 Сезон: / Серии 1-22 [2011 Фэнтeзи WEB-DLRip 720p] wekotila Скачать
1 | 0
Зарубежные сериалы [ 8.6 GB ] Герои / Heroes / Сезон: 1 / Серии: 0-23 [2006 HDRip] MVO wekotila Скачать
1 | 0
Зарубежные сериалы [ 3.86 GB ] Герои / Heroes / Сезон: 2 / Серии: 1-11 [2007 HDRip] MVO wekotila Скачать
1 | 0


Последний раз редактировалось: bober100 (2022-01-15 04:13), всего редактировалось 3 раз(а)

28-11-2019 20:33  

Отключить всю рекламу на сайте

11-01-2022 16:25 Бим Скачать торрент  

мне больше нравится сериал песfreetor.icu



11-01-2022 18:01 Бим Скачать торрент  

Мент и Пёс...хммм-где то я это уже видел.На том же НТВ.Что-мозгов что то другое сочинить совсем не осталось?..freetor.icu



    Дорогой пользователь! Огромная просьба, поблагодарите релизера, оцените раздачу и оставьте свои комментарий, если Вы скачали Бим через торрент бесплатно!
    Комментировать посты могут только пользователи прошедшие не сложную регистрацию
    Показать сообщения:    

    Бим через торрент
    Скачать бесплатно Бим
    Бим скачать торрент
    Бим смотреть онлайн
    Cкачать фильм Бим бесплатно
    Бим скачать торрент в хорошем качестве
    Бим смотреть онлайн бесплатно в хорошем качестве


    Вы не можете начинать темы
    Вы не можете отвечать на сообщения
    Вы не можете редактировать свои сообщения
    Вы не можете удалять свои сообщения
    Вы не можете голосовать в опросах
    Вы не можете прикреплять файлы к сообщениям
    Вы можете скачивать файлы