Всегда рабочее зеркало просто перед .vidak.icu напиши любое слово или цифру, Пример http://r1n.vidak.icu

>

7.4

iTunes

7.4

2 сезон

9.4

1 сезон

1

7.4

2 сезон

7.2

iTunes

6.0

MVO

13

6.1

iTunes

8.3

Пиратка

30

ULTIMATE

pack

9.9

Лицензия

ВАЖНО

ИГРА 18+

pack

7.3

RePack

MK11

7.7

RePack

jed

7.8

RePack

fifa19

8.5

RePack

RDR2

RePack

NEED FOR SPEED™ PAYBACK

1 сезон

9 сезон

Бесстыжие 9 сезон

Все сериалы

все сериалы на PB.wtf

RePack

FAR CRY 5

Anonymous, добрый день, мы катастрофически не успеваем собрать деньги на оплату серверов, помогите нам пожалуйста 5,10,15р., для нас важна любая помощь . В качестве благодарности мы отключим Вам всю рекламу на сайте (укажите свой ник в строку Ваше имя)!

×
  
Magnet ссылка

Последний бросок / Лазарат / Lazarat (Уильям Кауфман) [2019, Боевик, триллер, криминал, HDRip-AVC] DUB [iTunes] от ExKinoRay freetor.icu

Последний бросок через торрент freetor.icu

Раздают: 14 [ 501 KB/s ]
Размер: 1.93 GB | Добавлен: 9 д. назад | Торрент скачан:148 раз
Смотреть онлайн Последний бросок | Скачать    Ребята, помогите собрать деньги на оплату серверов!!!

09-01-2022 07:53 Последний бросок Скачать торрент  


Последний бросок / Лазарат / Lazarat
Информация о фильме:
Название: Последний бросок / Лазарат
Оригинальное название: Lazarat (The Brave)
Год выхода: 2019
Жанр: Боевик, триллер, криминал
Режиссер: Уильям Кауфман

В ролях: Арманд Ассанте, Луис Мэндилор, Игорь Жижикин, Равшана Куркова, Менсур Сафкиу, Радослав Парванов, Гоша Куценко, Сонни Пузикас, Иса Заруи, Иван Макаревич

Описание: Действие триллера, основанного на реальных событиях, разворачивается в самом сердце Албании. Перед зрителем предстает мир, полный наркотиков, преступности, обмана, позора и опасности, скрывающихся на каждом углу.В центре сюжета — история реального противостояния местных жителей и полиции, которая пыталась ограничить бурную деятельность селян, связанную с производству наркотиков.



Страна: США
Студия: Mercury Films
Продолжительность: 01:43:06
Перевод: Дублированный - iTunes



Информация о файле:
Кодек: AVC
Формат: MKV
Качество: HDRip-AVC
Видео: MPEG-4 AVC, 1024x426, 23.976 fps, 1850 kb/s
Аудио RU: AC3, 6 ch, 48 kHz, 384 kbps
Аудио EN: AC3, 6 ch, 48 kHz, 448 kbps
Субтитры: Русские (Forced), немецкие (Forced)

x264 info: frame I:1492 Avg QP:14.84 size: 61907
x264 info: frame P:39601 Avg QP:18.36 size: 18825
x264 info: frame B:107226 Avg QP:19.89 size: 5490
x264 info: consecutive B-frames: 5.7% 6.2% 13.6% 19.4% 18.4% 28.7% 4.5% 1.7% 0.8% 0.4% 0.6%
General
Unique ID : 246799885151278644901874558510292241630 (0xB9ABEDCCF12B8C78AA4DE0C3F8B78CDE)
Complete name : D:uTorrentРипы wolf1245Lazarat.2019.DUB.iTunes.HDRip-AVC.[wolf1245.ExKinoRay].mkv
Format : Matroska
Format version : Version 4
File size : 1.93 GiB
Duration : 1 h 43 min
Overall bit rate : 2 679 kb/s
Movie name : Lazarat.2019.DUB.iTunes.HDRip-AVC.[wolf1245.ExKinoRay]
Encoded date : UTC 2022-01-09 07:40:20
Writing application : mkvmerge v64.0.0 ('Willows') 64-bit
Writing library : libebml v1.4.2 + libmatroska v1.6.4
Video
ID : 1
Format : AVC
Format/Info : Advanced Video Codec
Format profile : [email protected]
Format settings : CABAC / 10 Ref Frames
Format settings, CABAC : Yes
Format settings, Reference frames : 10 frames
Codec ID : V_MPEG4/ISO/AVC
Duration : 1 h 43 min
Bit rate : 1 850 kb/s
Width : 1 024 pixels
Height : 426 pixels
Display aspect ratio : 2.40:1
Frame rate mode : Constant
Frame rate : 23.976 (24000/1001) FPS
Color space : YUV
Chroma subsampling : 4:2:0
Bit depth : 8 bits
Scan type : Progressive
Bits/(Pixel*Frame) : 0.177
Stream size : 1.33 GiB (69%)
Title : -=[wolf1245.ExKinoRay]=-
Writing library : x264 core 163 r3060 5db6aa6
Encoding settings : cabac=1 / ref=10 / deblock=1:-3:-3 / analyse=0x3:0x133 / me=umh / subme=11 / psy=1 / psy_rd=1.05:0.15 / mixed_ref=1 / me_range=48 / chroma_me=1 / trellis=2 / 8x8dct=1 / cqm=0 / deadzone=21,11 / fast_pskip=1 / chroma_qp_offset=-3 / threads=10 / lookahead_threads=2 / sliced_threads=0 / nr=0 / decimate=0 / interlaced=0 / bluray_compat=0 / constrained_intra=0 / bframes=10 / b_pyramid=2 / b_adapt=2 / b_bias=0 / direct=3 / weightb=1 / open_gop=0 / weightp=2 / keyint=240 / keyint_min=24 / scenecut=40 / intra_refresh=0 / rc_lookahead=60 / rc=2pass / mbtree=0 / bitrate=1850 / ratetol=1.0 / qcomp=0.60 / qpmin=0 / qpmax=69 / qpstep=4 / cplxblur=20.0 / qblur=0.5 / vbv_maxrate=50000 / vbv_bufsize=62500 / nal_hrd=none / filler=0 / ip_ratio=1.40 / pb_ratio=1.30 / aq=2:1.00
Language : English
Default : Yes
Forced : No
Audio #1
ID : 2
Format : AC-3
Format/Info : Audio Coding 3
Commercial name : Dolby Digital
Codec ID : A_AC3
Duration : 1 h 43 min
Bit rate mode : Constant
Bit rate : 384 kb/s
Channel(s) : 6 channels
Channel layout : L R C LFE Ls Rs
Sampling rate : 48.0 kHz
Frame rate : 31.250 FPS (1536 SPF)
Compression mode : Lossy
Stream size : 283 MiB (14%)
Title : iTunes | DUB | RUS
Language : Russian
Service kind : Complete Main
Default : Yes
Forced : Yes
Audio #2
ID : 3
Format : AC-3
Format/Info : Audio Coding 3
Commercial name : Dolby Digital
Codec ID : A_AC3
Duration : 1 h 43 min
Bit rate mode : Constant
Bit rate : 448 kb/s
Channel(s) : 6 channels
Channel layout : L R C LFE Ls Rs
Sampling rate : 48.0 kHz
Frame rate : 31.250 FPS (1536 SPF)
Compression mode : Lossy
Stream size : 330 MiB (17%)
Title : Original | ENG
Language : English
Service kind : Complete Main
Default : Yes
Forced : No
Text #1
ID : 4
Format : UTF-8
Codec ID : S_TEXT/UTF8
Codec ID/Info : UTF-8 Plain Text
Duration : 22 min 56 s
Bit rate : 0 b/s
Count of elements : 3
Stream size : 103 Bytes (0%)
Title : Forced
Language : Russian
Default : Yes
Forced : Yes
Text #2
ID : 5
Format : UTF-8
Codec ID : S_TEXT/UTF8
Codec ID/Info : UTF-8 Plain Text
Duration : 22 min 56 s
Bit rate : 0 b/s
Count of elements : 3
Stream size : 62.0 Bytes (0%)
Language : German
Default : No
Forced : No
Menu
00:00:00.000 : :ger: 01
00:12:25.410 : :ger: 02
00:24:58.913 : :ger: 03
00:39:21.108 : :ger: 04
00:52:10.835 : :ger: 05
01:04:53.389 : :ger: 06
01:17:20.801 : :ger: 07
01:31:14.301 : :ger: 08
01:39:29.796 : :ger: 09
01:43:06.180 : :ger: 10
Релиз от:
Автор релиза:
freetor.icu



Скачать Последний бросок через торрент https://i115.fastpic.ru/big/2021/0627/27/7d482ab2956d5d657f5d7322510de627.jpg Скачать, смотреть онлайн Последний бросок бесплантно в хорошем качестве Описание: Действие триллера, основанного на реальных событиях, разворачивается в самом сердце Албании. Перед зрителем предстает мир, ... 6.5 10 8
Торрент: Зарегистрирован [2022-01-09 07:53] · скачан: 148 раз
Статус: √ проверено
Размер: 1.93 GB
Как cкачать? Как скачать Последний бросок через торрент | UTorrent

28-11-2019 20:33  

Отключить всю рекламу на сайте

10-01-2022 03:18 Последний бросок Скачать торрент  

Хоспадиии, эта мразь жирная что ещё там делает ?freetor.icu



    Дорогой пользователь! Огромная просьба, поблагодарите релизера, оцените раздачу и оставьте свои комментарий, если Вы скачали Последний бросок через торрент бесплатно!
    Комментировать посты могут только пользователи прошедшие не сложную регистрацию
    Показать сообщения:    

    Последний бросок через торрент
    Скачать бесплатно Последний бросок
    Последний бросок скачать торрент
    Последний бросок смотреть онлайн
    Cкачать фильм Последний бросок бесплатно
    Последний бросок скачать торрент в хорошем качестве
    Последний бросок смотреть онлайн бесплатно в хорошем качестве


    Вы не можете начинать темы
    Вы не можете отвечать на сообщения
    Вы не можете редактировать свои сообщения
    Вы не можете удалять свои сообщения
    Вы не можете голосовать в опросах
    Вы не можете прикреплять файлы к сообщениям
    Вы можете скачивать файлы