Всегда рабочее зеркало просто перед .vidak.icu напиши любое слово или цифру, Пример http://4dh.vidak.icu

>

7.4

iTunes

7.4

2 сезон

6.6

iTunes

1

7.4

2 сезон

7.2

iTunes

6.0

MVO

13

6.1

iTunes

8.3

Пиратка

30

ULTIMATE

pack

9.9

Лицензия

ВАЖНО

ИГРА 18+

pack

7.3

RePack

MK11

7.7

RePack

jed

7.8

RePack

fifa19

8.5

RePack

RDR2

RePack

NEED FOR SPEED™ PAYBACK

1 сезон

9 сезон

Бесстыжие 9 сезон

Все сериалы

все сериалы на PB.wtf

RePack

FAR CRY 5

Anonymous, добрый вечер, мы катастрофически не успеваем собрать деньги на оплату серверов, помогите нам пожалуйста 5,10,15р., для нас важна любая помощь . В качестве благодарности мы отключим Вам всю рекламу на сайте (укажите свой ник в строку Ваше имя)!

×
  
Magnet ссылка

Зверопой 2 / Sing 2 (Гарт Дженнингс) [2021, мультфильм, драма, комедия, семейный, музыка, WEB-DL 1080p] [DUB] freetor.icu

Зверопой 2 через торрент freetor.icu

Раздают: 86 [ 3 MB/s ] Качают: 4 [ 917 KB/s ]
Размер: 4.57 GB | Добавлен: 12 д. назад | Торрент скачан:782 раза
Смотреть онлайн Зверопой 2 | Скачать    Ребята, помогите собрать деньги на оплату серверов!!!

08-01-2022 17:45 Зверопой 2 Скачать торрент  

Зверопой 2 / Sing 2
Год выпуска: 2021
Страна: США, Франция, Япония
Производство: Universal Pictures, Illumination Entertainment, Hammer & Tongs
Жанр: мультфильм, драма, комедия, семейный, музыка
Продолжительность: 01:49:40
Перевод: Дублированный
Субтитры: Русские (на песни)

Режиссер: Гарт Дженнингс

В ролях: Мэттью МакКонахи, Риз Уизерспун, Сет МакФарлейн, Скарлетт Йоханссон, Джон Си Райли, Тэрон Эджертон, Тори Келли, Дженнифер Сондерс

Описание: Тяжело быть продюсером, когда ты коала и у тебя лапки. Еще сложнее, когда твоя верная помощница древнее печатной машинки. И совсем весело, когда твоя труппа - это танцующий без остановки пухляш, колючая девочка-панк, застенчивая школьница, верзила-гангстер и многодетная мама, чьи дети - поросята в прямом смысле слова. Рецепт успеха прост - рвануть в мировую столицу развлечений, завербовать легендарного рок-музыканта и взорвать сцену новым шоу.
rating


Реклама: Присутствует баннер

Качество: WEB-DL 1080p
Формат: MKV
Видео кодек: AVC
Аудио кодек: АС3
Видео: AVC/H.264, 1920x1036, 5779 Kbps, 23.976 fps
Аудио: 48 kHz, AC3, 2 ch, ~192 kbps
скриншот  скриншот  скриншот  
Общее
Уникальный идентификатор : 238761214671616935441928975667986542710 (0xB39FBCBF001508FB828A6A792CF5B076)
Полное имя : D:\Зверопой.2.2021.WEB-DLRip.[1080p].NNMClub.mkv
Формат : Matroska
Версия формата : Version 4
Размер файла : 4,57 Гбайт
Продолжительность : 1 ч. 49 м.
Общий поток : 5972 Кбит/сек
Название фильма : Зверопой.2.2021.WEB-DLRip.[1080p].NNMClub
Дата кодирования : UTC 2022-01-07 15:28:27
Программа кодирования : mkvmerge v8.3.0 ('Over the Horizon') 64bit
Библиотека кодирования : libebml v1.3.1 + libmatroska v1.4.2

Видео
Идентификатор : 1
Формат : AVC
Формат/Информация : Advanced Video Codec
Профиль формата : [email protected]
Настройки формата : CABAC / 4 Ref Frames
Параметр CABAC формата : Да
Параметр RefFrames формата : 4 кадра
Идентификатор кодека : V_MPEG4/ISO/AVC
Продолжительность : 1 ч. 49 м.
Битрейт : 5779 Кбит/сек
Ширина : 1920 пикселей
Высота : 1036 пикселей
Соотношение сторон : 1,85:1
Режим частоты кадров : Постоянный
Частота кадров : 23,976 кадра/сек
Цветовое пространство : YUV
Субдискретизация насыщенности : 4:2:0
Битовая глубина : 8 бит
Тип развёртки : Прогрессивная
Бит/(Пиксели*Кадры) : 0.121
Размер потока : 4,43 Гбайт (97%)
Язык : English
Default : Да
Forced : Нет

Аудио
Идентификатор : 2
Формат : AC-3
Формат/Информация : Audio Coding 3
Коммерческое название : Dolby Digital
Идентификатор кодека : A_AC3
Продолжительность : 1 ч. 49 м.
Вид битрейта : Постоянный
Битрейт : 192 Кбит/сек
Каналы : 2 канала
ChannelLayout : L R
Частота : 48,0 КГц
Частота кадров : 31,250 кадров/сек (1536 SPF)
Битовая глубина : 16 бит
Метод сжатия : С потерями
Задержка видео : 11 мс.
Размер потока : 151 Мбайт (3%)
Язык : Russian
ServiceKind/String : Complete Main
Default : Да
Forced : Нет
freetor.icu



Скачать Зверопой 2 через торрент https://i116.fastpic.org/big/2022/0108/23/0d35ccc52d618b98bbc050800d841a23.jpg Скачать, смотреть онлайн Зверопой 2 бесплантно в хорошем качестве Описание: Тяжело быть продюсером, когда ты коала и у тебя лапки. Еще сложнее, когда твоя верная помощница древнее печатной машинки. И ... 9.9 10 27
Info! Золотая раздача, скачанное не засчитывается.
Торрент: Зарегистрирован [2022-01-08 17:47] · скачан: 782 раз
Статус: T временная
Размер: 4.57 GB
Как cкачать? Как скачать Зверопой 2 через торрент | UTorrent

% Раздел Тема Автор DL S | L
Мультфильмы (48-60 fps) [ 4.71 GB ] Зверопой 2 / Sing 2 [2021 Музыкальный WEB-DLRip 720p / 60 FPS] MVO [Jaskier] от R.G. HD-Films slaventi-69 Скачать
38 | 4
Иностранные мультфильмы [ 1.46 GB ] Зверопой 2 / Sing 2 [2021 Мультфильм мюзикл WEB-DLRip] MVO [Jaskier] bober100 Скачать
29 | 0
Зарубежные Мультфильмы (WEB-DL 720p, 1080p) [ 5.95 GB ] Зверопой 2 / Sing 2 [2021 Мультфильм мюзикл WEB-DL 1080p] MVO [Jaskier] bober100 Скачать
47 | 0
Фильмы с украинским озвучиванием [ 2.03 GB ] Зверопой 2 / Співай 2 / Sing 2 [2021 мультфильм музыка WEB-DL 1080p] [Ukr DUB] killermax2013 Скачать
6 | 0

28-11-2019 20:33  

Отключить всю рекламу на сайте

15-01-2022 07:55 Зверопой 2 Скачать торрент  

Мне 36 лет. Этот мультик шедевр!freetor.icu



    Дорогой пользователь! Огромная просьба, поблагодарите релизера, оцените раздачу и оставьте свои комментарий, если Вы скачали Зверопой 2 через торрент бесплатно!
    Комментировать посты могут только пользователи прошедшие не сложную регистрацию
    Показать сообщения:    

    Зверопой 2 через торрент
    Скачать бесплатно Зверопой 2
    Зверопой 2 скачать торрент
    Зверопой 2 смотреть онлайн
    Cкачать фильм Зверопой 2 бесплатно
    Зверопой 2 скачать торрент в хорошем качестве
    Зверопой 2 смотреть онлайн бесплатно в хорошем качестве


    Вы не можете начинать темы
    Вы не можете отвечать на сообщения
    Вы не можете редактировать свои сообщения
    Вы не можете удалять свои сообщения
    Вы не можете голосовать в опросах
    Вы не можете прикреплять файлы к сообщениям
    Вы можете скачивать файлы