Всегда рабочее зеркало просто перед .vidak.icu напиши любое слово или цифру, Пример http://dqh.vidak.icu

>

7.4

iTunes

7.4

2 сезон

6.6

iTunes

1

7.4

2 сезон

7.2

iTunes

6.0

MVO

13

6.1

iTunes

8.3

Пиратка

30

ULTIMATE

pack

9.9

Лицензия

ВАЖНО

ИГРА 18+

pack

7.3

RePack

MK11

7.7

RePack

jed

7.8

RePack

fifa19

8.5

RePack

RDR2

RePack

NEED FOR SPEED™ PAYBACK

1 сезон

9 сезон

Бесстыжие 9 сезон

Все сериалы

все сериалы на PB.wtf

RePack

FAR CRY 5

Anonymous, добрый день, мы катастрофически не успеваем собрать деньги на оплату серверов, помогите нам пожалуйста 5,10,15р., для нас важна любая помощь . В качестве благодарности мы отключим Вам всю рекламу на сайте (укажите свой ник в строку Ваше имя)!

×
  
Magnet ссылка

Энканто / Encanto (Джаред Буш, Байрон Ховард, Чариз Кастро Смит) [2021, Мультфильм, мюзикл, фэнтези, комедия, приключения, семейный, WEB-DL 1080p] DUB [TS] +DVO [Pazl Voice] freetor.icu

Энканто через торрент freetor.icu

Раздают: 28 [ 908 KB/s ] Качают: 4 [ 0 KB/s ]
Размер: 7.91 GB | Добавлен: 23 д. назад | Торрент скачан:406 раз
Смотреть онлайн Энканто | Скачать    Ребята, помогите собрать деньги на оплату серверов!!!

28-12-2021 20:01 Энканто Скачать торрент  

Энканто
Encanto
«В этой семье все уникальные... Кроме Мирабэль»
Год выпуска: 2021
Страна: США
Студия: Walt Disney Animation Studios, Walt Disney Pictures
Жанр: Мультфильм, мюзикл, фэнтези, комедия, приключения, семейный
Продолжительность: 01:42:47
Перевод:
Любительский (двухголосый) | Pazl Voice
Дублированный | TS
Субтитры: Русские, английские, испанские, французкие

Режиссер: Джаред Буш, Байрон Ховард, Чариз Кастро Смит

rating

В ролях: Стефани Беатриз, Мария Сесилия Ботеро, Джон Легуизамо, Мауро Кастильо, Джессика Дарроу, Энджи Сепеда, Каролина Гайтан, Дайан Герреро, Уилмер Вальдеррама, Рензи Фелиз

Описание: Удивительная семья Мадригалов живет в спрятанном в горах Колумбии волшебном доме, расположенном в чудесном и очаровательном уголке под названием Энканто. Каждого ребёнка в семье Мадригалов магия этого места благословила уникальным даром - от суперсилы до способности исцелять. Увы, магия обошла стороной одну лишь юную Мирабель. Обнаружив, что магия Энканто находится в опасности, Мирабель решает, что именно она может быть последней надеждой на спасение своей особенной семьи.

Качество: WEB-DL 1080p
Формат: MKV

Видео: MPEG-4 AVC, 1920x1038, 16:9, 23.976 fps, 9681 Кбит/с
Аудио #1: AC3, 48 Гц, 448 Кбит/сек, 6 ch (L C R, + L R, LFE) Pazl Voice - русский
Аудио #2: AC3, 48 Гц, 256 Кбит/сек, 2 ch (L, R) DUB - русский
Аудио #3: AC3, 48 Гц, 640 Кбит/сек, 8 ch (L, R, C, LFE, Ls, Rs, Lb, Rb) - английский
скриншот  скриншот  скриншот  скриншот  скриншот  скриншот  

Format : Matroska
Format version : Version 4
File size : 7.91 GiB
Duration : 1 h 42 min
Overall bit rate : 11.0 Mb/s
Movie name : KinoPub: Энканто / Encanto (2021) от New-Team.org
Encoded date : UTC 2021-12-27 08:59:30
Writing application : mkvmerge v56.1.0 ('My Friend') 64-bit
Writing library : libebml v1.4.2 + libmatroska v1.6.4
Attachments : Encanto.jpg

Video
ID : 1
Format : AVC
Format/Info : Advanced Video Codec
Format profile : [email protected]
Format settings : CABAC / 4 Ref Frames
Format settings, CABAC : Yes
Format settings, Reference : 4 frames
Codec ID : V_MPEG4/ISO/AVC
Duration : 1 h 42 min
Bit rate : 9 681 kb/s
Width : 1 920 pixels
Height : 1 038 pixels
Display aspect ratio : 1.85:1
Frame rate mode : Constant
Frame rate : 23.976 FPS
Color space : YUV
Chroma subsampling : 4:2:0
Bit depth : 8 bits
Scan type : Progressive
Bits/(Pixel*Frame) : 0.203
Stream size : 6.95 GiB (88%)
Default : Yes
Forced : No
Color range : Limited
Color primaries : BT.709
Transfer characteristics : BT.709
Matrix coefficients : BT.709

Audio #1
ID : 2
Format : AC-3
Format/Info : Audio Coding 3
Commercial name : Dolby Digital
Codec ID : A_AC3
Duration : 1 h 42 min
Bit rate mode : Constant
Bit rate : 448 kb/s
Channel(s) : 6 channels
Channel layout : L R C LFE Ls Rs
Sampling rate : 48.0 kHz
Frame rate : 31.250 FPS (1536 SPF)
Compression mode : Lossy
Stream size : 327 MiB (4%)
Title : DVO [Pazl Voice] KinoPub
Language : Russian
Service kind : Complete Main
Default : Yes
Forced : No

Audio #2
ID : 3
Format : AC-3
Format/Info : Audio Coding 3
Commercial name : Dolby Digital
Codec ID : A_AC3
Duration : 1 h 42 min
Bit rate mode : Constant
Bit rate : 256 kb/s
Channel(s) : 2 channels
Channel layout : L R
Sampling rate : 48.0 kHz
Frame rate : 31.250 FPS (1536 SPF)
Compression mode : Lossy
Stream size : 187 MiB (2%)
Title : DUB [Line] KinoPub
Language : Russian
Service kind : Complete Main
Default : No
Forced : No

Audio #3
ID : 4
Format : E-AC-3
Format/Info : Enhanced AC-3
Commercial name : Dolby Digital Plus
Format settings : Dolby Surround EX
Codec ID : A_EAC3
Duration : 1 h 42 min
Bit rate mode : Constant
Bit rate : 640 kb/s
Channel(s) : 8 channels
Channel layout : L R C LFE Ls Rs Lb Rb
Sampling rate : 48.0 kHz
Frame rate : 31.250 FPS (1536 SPF)
Compression mode : Lossy
Stream size : 467 MiB (6%)
Language : English
Service kind : Complete Main
Default : No
Forced : No

Text #1
ID : 5
Format : UTF-8
Codec ID : S_TEXT/UTF8
Codec ID/Info : UTF-8 Plain Text
Duration : 1 h 30 min
Bit rate : 99 b/s
Count of elements : 1205
Stream size : 66.1 KiB (0%)
Title : Full
Language : Russian
Default : No
Forced : No

Text #2
ID : 6
Format : UTF-8
Codec ID : S_TEXT/UTF8
Codec ID/Info : UTF-8 Plain Text
Duration : 1 h 30 min
Bit rate : 62 b/s
Count of elements : 1211
Stream size : 41.1 KiB (0%)
Language : English
Default : No
Forced : No

Text #3
ID : 7
Format : UTF-8
Codec ID : S_TEXT/UTF8
Codec ID/Info : UTF-8 Plain Text
Duration : 1 h 30 min
Bit rate : 63 b/s
Count of elements : 1211
Stream size : 41.8 KiB (0%)
Title : Latin American
Language : Spanish
Default : No
Forced : No

Text #4
ID : 8
Format : UTF-8
Codec ID : S_TEXT/UTF8
Codec ID/Info : UTF-8 Plain Text
Duration : 1 h 40 min
Bit rate : 60 b/s
Count of elements : 1259
Stream size : 44.5 KiB (0%)
Title : Canadian
Language : French
Default : No
Forced : No

Menu
00:00:00.000 : Chapter 01
00:03:57.654 : Chapter 02
00:09:49.297 : Chapter 03
00:15:07.574 : Chapter 04
00:16:54.889 : Chapter 05
00:21:48.808 : Chapter 06
00:24:54.911 : Chapter 07
00:28:58.613 : Chapter 08
00:31:10.620 : Chapter 09
00:38:35.106 : Chapter 10
00:44:57.822 : Chapter 11
00:53:39.969 : Chapter 12
01:01:22.349 : Chapter 13
01:06:28.071 : Chapter 14
01:11:41.259 : Chapter 15
01:16:38.139 : Chapter 16
01:24:25.398 : Chapter 17
01:31:02.212 : Chapter 18

freetor.icu



Скачать Энканто через торрент https://i4.imageban.ru/out/2022/01/19/0ad4095c8996d6fa87909c561740961f.png Скачать, смотреть онлайн Энканто бесплантно в хорошем качестве Описание: Удивительная семья Мадригалов живет в спрятанном в горах Колумбии волшебном доме, расположенном в чудесном и очаровательном ... 9.3 10 13
Info! Золотая раздача, скачанное не засчитывается.
Торрент: Зарегистрирован [2021-12-28 20:01] · скачан: 406 раз
Статус: T временная
Размер: 7.91 GB
Как cкачать? Как скачать Энканто через торрент | UTorrent

28-11-2019 20:33  

Отключить всю рекламу на сайте

    Дорогой пользователь! Огромная просьба, поблагодарите релизера, оцените раздачу и оставьте свои комментарий, если Вы скачали Энканто через торрент бесплатно!
    Комментировать посты могут только пользователи прошедшие не сложную регистрацию
    Показать сообщения:    

    Энканто через торрент
    Скачать бесплатно Энканто
    Энканто скачать торрент
    Энканто смотреть онлайн
    Cкачать фильм Энканто бесплатно
    Энканто скачать торрент в хорошем качестве
    Энканто смотреть онлайн бесплатно в хорошем качестве


    Вы не можете начинать темы
    Вы не можете отвечать на сообщения
    Вы не можете редактировать свои сообщения
    Вы не можете удалять свои сообщения
    Вы не можете голосовать в опросах
    Вы не можете прикреплять файлы к сообщениям
    Вы можете скачивать файлы