Присоединяйтесь к нам в Telegram!, здесь всегда актуальный адрес сайта, оперативная поддержка и многое другое!!

>

5.9

iTunes

7.4

iTunes

9.4

1 сезон

1

7.4

2 сезон

7.2

iTunes

7.3

1 сезон

13

6.1

iTunes

8.3

GOG

30

ULTIMATE

pack

9.9

Лицензия

ВАЖНО

ИГРА 18+

pack

7.3

RePack

MK11

7.7

RePack

jed

7.8

RePack

fifa19

8.5

RePack

RDR2

RePack

NEED FOR SPEED™ PAYBACK

5 сезон

9 сезон

Бесстыжие 9 сезон

Все сериалы

все сериалы на PB.wtf

RePack

FAR CRY 5

Anonymous, доброе утро, мы катастрофически не успеваем собрать деньги на оплату серверов, помогите нам пожалуйста 5,10,15р., для нас важна любая помощь . В качестве благодарности мы отключим Вам всю рекламу на сайте (укажите свой ник в строку Ваше имя)!

×
  
Magnet ссылка

Крик. Кровавое посвящение / Initiation (Джон Берардо) [2020, триллер, криминал, детектив, HDRip-AVC] DVO [Pazl Voice] от MediaBit freetor.icu

Крик. Кровавое посвящение через торрент freetor.icu

Раздают: 1 [ 0 KB/s ]
Размер: 2.05 GB | Добавлен: 3 мес. 21 д. назад | Торрент скачан:59 раз
Смотреть онлайн Крик. Кровавое посвящение | Скачать    Ребята, помогите собрать деньги на оплату серверов!!!

07-08-2021 16:33 Крик. Кровавое посвящение Скачать торрент  


Крик. Кровавое посвящение / Initiation
Информация о фильме:
Название: Крик. Кровавое посвящение
Оригинальное название: Initiation
Год выхода: 2020
Жанр: триллер, криминал, детектив
Режиссер: Джон Берардо
В ролях: Изабелла Гомес, Линдсэй ЛаВанши, Фрой Гутьеррез, Джеймс Берардо, Гэттлин Гриффит, Один Колански, Ширин Лай, Патрик Р. Уокер, Макс Хэмилтон, Барт Джонсон

Описание: Молодые люди наслаждаются студенческой жизнью, постоянно устраивая шумные вечеринки. Но на одной из них происходит ужасная трагедия. Неизвестный убивает популярного игрока университетской футбольной команды. Все говорит о том, что это убийство не было спонтанным. Преступник тщательно продумал каждое свое действие и теперь наслаждается хаосом, происходящим вокруг по его вине.



Страна: США
Студия: Shatterproof Films
Продолжительность: 01:37:36
Перевод: Любительский (двухголосый, закадровый) - Pazl Voice



Информация о файле:
Кодек: AVC
Формат: MKV
Качество: HDRip-AVC
Видео: MPEG-4 AVC, 1024x428, 23.976, 2109 kbps
Аудио RU: AC3, 6 ch, 48 kHz, 448 kbps
Аудио EN: AC3, 6 ch, 48 kHz, 448 kbps
Субтитры: английские
Навигация по главам: Да

*****ПРИСУТСТВУЕТ НЕНОРМАТИВНАЯ ЛЕКСИКА

General
Unique ID : 42970192789669505305321619950582894811 (0x2053C212E7C083B52FCE57EB77F010DB)
Complete name : D:uTorrentРипы wolf1245Initiation.2020.DVO.Pazl.Voice.HDRip-AVC.[wolf1245.MediaBit].mkv
Format : Matroska
Format version : Version 4
File size : 2.05 GiB
Duration : 1 h 37 min
Overall bit rate : 3 007 kb/s
Movie name : Initiation.2020.DVO.Pazl.Voice.HDRip-AVC.[wolf1245.MediaBit]
Encoded date : UTC 2021-08-07 16:16:44
Writing application : mkvmerge v60.0.0 ('Are We Copies?') 64-bit
Writing library : libebml v1.4.2 + libmatroska v1.6.4
Video
ID : 1
Format : AVC
Format/Info : Advanced Video Codec
Format profile : [email protected]
Format settings : CABAC / 12 Ref Frames
Format settings, CABAC : Yes
Format settings, Reference frames : 12 frames
Codec ID : V_MPEG4/ISO/AVC
Duration : 1 h 37 min
Bit rate : 2 109 kb/s
Width : 1 024 pixels
Height : 428 pixels
Display aspect ratio : 2.40:1
Frame rate mode : Constant
Frame rate : 23.976 (24000/1001) FPS
Color space : YUV
Chroma subsampling : 4:2:0
Bit depth : 8 bits
Scan type : Progressive
Bits/(Pixel*Frame) : 0.201
Stream size : 1.44 GiB (70%)
Title : [wolf1245.MediaBit]
Writing library : x264 core 157 r2958 57baac4
Encoding settings : cabac=1 / ref=12 / deblock=1:-2:-2 / analyse=0x3:0x133 / me=umh / subme=10 / psy=1 / psy_rd=0.98:0.05 / mixed_ref=1 / me_range=32 / chroma_me=1 / trellis=2 / 8x8dct=1 / cqm=0 / deadzone=21,11 / fast_pskip=1 / chroma_qp_offset=-3 / threads=10 / lookahead_threads=2 / sliced_threads=0 / nr=0 / decimate=1 / interlaced=0 / bluray_compat=0 / constrained_intra=0 / bframes=10 / b_pyramid=2 / b_adapt=2 / b_bias=0 / direct=3 / weightb=1 / open_gop=0 / weightp=2 / keyint=240 / keyint_min=24 / scenecut=40 / intra_refresh=0 / rc_lookahead=60 / rc=2pass / mbtree=1 / bitrate=2109 / ratetol=1.0 / qcomp=0.60 / qpmin=0 / qpmax=69 / qpstep=4 / cplxblur=20.0 / qblur=0.5 / vbv_maxrate=50000 / vbv_bufsize=62500 / nal_hrd=none / filler=0 / ip_ratio=1.40 / aq=3:0.80
Language : English
Default : Yes
Forced : No
Color range : Limited
Color primaries : BT.709
Matrix coefficients : BT.709
Audio #1
ID : 2
Format : AC-3
Format/Info : Audio Coding 3
Commercial name : Dolby Digital
Codec ID : A_AC3
Duration : 1 h 37 min
Bit rate mode : Constant
Bit rate : 448 kb/s
Channel(s) : 6 channels
Channel layout : L R C LFE Ls Rs
Sampling rate : 48.0 kHz
Frame rate : 31.250 FPS (1536 SPF)
Compression mode : Lossy
Stream size : 313 MiB (15%)
Title : DVO | Pazl Voice
Language : Russian
Service kind : Complete Main
Default : Yes
Forced : No
Audio #2
ID : 3
Format : AC-3
Format/Info : Audio Coding 3
Commercial name : Dolby Digital
Codec ID : A_AC3
Duration : 1 h 37 min
Bit rate mode : Constant
Bit rate : 448 kb/s
Channel(s) : 6 channels
Channel layout : L R C LFE Ls Rs
Sampling rate : 48.0 kHz
Frame rate : 31.250 FPS (1536 SPF)
Compression mode : Lossy
Stream size : 313 MiB (15%)
Title : Original
Language : English
Service kind : Complete Main
Default : No
Forced : No
Text
ID : 4
Format : UTF-8
Codec ID : S_TEXT/UTF8
Codec ID/Info : UTF-8 Plain Text
Duration : 1 h 30 min
Bit rate : 50 b/s
Count of elements : 1087
Stream size : 33.3 KiB (0%)
Title : SRT
Language : English
Default : No
Forced : No
Menu
00:00:00.000 : :Chapter 01
00:04:22.678 : :Chapter 02
00:11:50.501 : :Chapter 03
00:18:48.794 : :Chapter 04
00:26:03.437 : :Chapter 05
00:30:47.012 : :Chapter 06
00:37:25.243 : :Chapter 07
00:42:06.357 : :Chapter 08
00:48:10.554 : :Chapter 09
00:53:30.082 : :Chapter 10
00:58:12.906 : :Chapter 11
01:03:12.956 : :Chapter 12
01:10:10.790 : :Chapter 13
01:14:56.492 : :Chapter 14
01:19:13.499 : :Chapter 15
01:29:04.130 : :Chapter 16
Релиз от: &
Автор релиза:
freetor.icu



Скачать Крик. Кровавое посвящение через торрент https://i115.fastpic.org/big/2021/0807/c5/45f73a7f2bfd204ce0ec2415d825d0c5.jpg Скачать, смотреть онлайн Крик. Кровавое посвящение бесплантно в хорошем качестве Описание: Молодые люди наслаждаются студенческой жизнью, постоянно устраивая шумные вечеринки. Но на одной из них происходит ужасная ... 8.2 10 5
Торрент: Зарегистрирован [2021-08-07 16:33] · скачан: 59 раз
Статус: T временная
Размер: 2.05 GB
Как cкачать? Как скачать Крик. Кровавое посвящение через торрент | UTorrent

28-11-2019 20:33  

Отключить всю рекламу на сайте

08-08-2021 18:58 Крик. Кровавое посвящение Скачать торрент  

Топик был перенесен из форума Фильмы 2019-2020 [DVDrip, WEB-DLRip, HDrip] (DUB, MVO) в форум Фильмы 2019-2020 (Звук TS, Cam, VO, DVO)


bober100freetor.icu



    Дорогой пользователь! Огромная просьба, поблагодарите релизера, оцените раздачу и оставьте свои комментарий, если Вы скачали Крик. Кровавое посвящение через торрент бесплатно!
    Комментировать посты могут только пользователи прошедшие не сложную регистрацию
    Показать сообщения:    

    Крик. Кровавое посвящение через торрент
    Скачать бесплатно Крик. Кровавое посвящение
    Крик. Кровавое посвящение скачать торрент
    Крик. Кровавое посвящение смотреть онлайн
    Cкачать фильм Крик. Кровавое посвящение бесплатно
    Крик. Кровавое посвящение скачать торрент в хорошем качестве
    Крик. Кровавое посвящение смотреть онлайн бесплатно в хорошем качестве


    Вы не можете начинать темы
    Вы не можете отвечать на сообщения
    Вы не можете редактировать свои сообщения
    Вы не можете удалять свои сообщения
    Вы не можете голосовать в опросах
    Вы не можете прикреплять файлы к сообщениям
    Вы можете скачивать файлы