Присоединяйтесь к нам в Telegram!, здесь всегда актуальный адрес сайта, оперативная поддержка и многое другое!!

>

5.9

iTunes

7.4

iTunes

9.4

1 сезон

1

7.4

2 сезон

7.2

iTunes

7.3

1 сезон

13

6.1

iTunes

8.3

Пиратка

30

ULTIMATE

pack

9.9

Лицензия

ВАЖНО

ИГРА 18+

pack

7.3

RePack

MK11

7.7

RePack

jed

7.8

RePack

fifa19

8.5

RePack

RDR2

RePack

NEED FOR SPEED™ PAYBACK

5 сезон

9 сезон

Бесстыжие 9 сезон

Все сериалы

все сериалы на PB.wtf

RePack

FAR CRY 5

Anonymous, доброй ночи, мы катастрофически не успеваем собрать деньги на оплату серверов, помогите нам пожалуйста 5,10,15р., для нас важна любая помощь . В качестве благодарности мы отключим Вам всю рекламу на сайте (укажите свой ник в строку Ваше имя)!

×
  
Magnet ссылка

Предчувствие / La Corazonada / Intuition (Алехандро Монтьель) [2020, криминал, триллер, WEB-DLRip-AVC] [DVO] [ViruseProject] от MediaBit freetor.icu

Предчувствие через торрент freetor.icu

Размер: 1.45 GB | Добавлен: 9 мес. назад | Торрент скачан:118 раз
Смотреть онлайн Предчувствие | Скачать    Ребята, помогите собрать деньги на оплату серверов!!!

18-02-2021 20:32 Предчувствие Скачать торрент  


Предчувствие / La Corazonada / Intuition
Информация о фильме:
Название: Предчувствие
Оригинальное название: La Corazonada / Intuition
Год выхода: 2020
Жанр: триллер, криминал
Режиссер: Алехандро Монтьель

В ролях: Луисана Лопилато, Хоакин Фуррьель, Рафаэль Ферро, Мэйти Ланата, Хуан Мануэль Гилера, Абель Айала, Себастьян Могордой, Delfina Chaves, Марита Баллестерос, Olivia Castanho и др.

Описание: После окончания академии Пипа берется за свое первое серьезное дело: вместе с Франсиско Хуанесом, инспектором отдела по расследованию убийств, чья репутация достаточно спорна, она должна раскрыть жестокое убийство 19-летней девушки.



Страна: Аргентина
Студия: FAM Contenidos
Продолжительность: 01:56:23
Перевод: Профессиональный (двухголосый, закадровый) - ViruseProject



Информация о файле:
Кодек: AVC
Формат: MKV
Качество: WEB-DLRip-AVC
Видео: MPEG-4 AVC, 1024x428, 23,976 fps, 1688 kb/s
Аудио RU: AAC-HE, 2 ch, 48 kHz, 96 kbps
Субтитры: Русские, английские, арабские, чешские, датские, нидерландские, финские, французские, немецкие, греческие, еврейские, болгарские, итальяснкие, норвежские, польские, португальские, румынские, испанские, швведские, турецкие

x264 info: frame I:1624 Avg QP:11.36 size: 86099
x264 info: frame P:34394 Avg QP:14.59 size: 24295
x264 info: frame B:131410 Avg QP:19.73 size: 3779
x264 info: consecutive B-frames: 1.9% 2.2% 7.3% 12.3% 14.8% 57.6% 1.8% 0.4% 0.4% 0.4% 0.9%
x264 info: mb I I16..4: 10.8% 57.9% 31.4%
******************************************
General
Unique ID : 85113198568753608838600794177043601902 (0x400834ADE84116AAAAB38A26702699EE)
Complete name : D:uTorrentРипы_от_wolf1245_MediaBitIntuition.2020.DVO.WEB-DLRip-AVC_wolf1245_MediaBit.mkv
Format : Matroska
Format version : Version 4
File size : 1.45 GiB
Duration : 1 h 56 min
Overall bit rate : 1 786 kb/s
Movie name : Intuition.2020.DVO.WEB-DLRip-AVC_wolf1245_MediaBit
Encoded date : UTC 2021-02-18 20:16:54
Writing application : mkvmerge v53.0.0 ('Fool's Gold') 64-bit
Writing library : libebml v1.4.1 + libmatroska v1.6.2
Video
ID : 1
Format : AVC
Format/Info : Advanced Video Codec
Format profile : [email protected]
Format settings : CABAC / 12 Ref Frames
Format settings, CABAC : Yes
Format settings, Reference frames : 12 frames
Codec ID : V_MPEG4/ISO/AVC
Duration : 1 h 56 min
Bit rate : 1 688 kb/s
Width : 1 024 pixels
Height : 428 pixels
Display aspect ratio : 2.40:1
Frame rate mode : Constant
Frame rate : 23.976 (24000/1001) FPS
Color space : YUV
Chroma subsampling : 4:2:0
Bit depth : 8 bits
Scan type : Progressive
Bits/(Pixel*Frame) : 0.161
Stream size : 1.37 GiB (94%)
Title : _wolf1245_MediaBit
Writing library : x264 core 157 r2958 57baac4
Encoding settings : cabac=1 / ref=12 / deblock=1:-3:-3 / analyse=0x3:0x133 / me=umh / subme=10 / psy=1 / psy_rd=1.08:0.03 / mixed_ref=1 / me_range=48 / chroma_me=1 / trellis=2 / 8x8dct=1 / cqm=0 / deadzone=21,11 / fast_pskip=1 / chroma_qp_offset=-3 / threads=10 / lookahead_threads=2 / sliced_threads=0 / nr=0 / decimate=1 / interlaced=0 / bluray_compat=0 / constrained_intra=0 / bframes=10 / b_pyramid=2 / b_adapt=2 / b_bias=0 / direct=3 / weightb=1 / open_gop=0 / weightp=2 / keyint=240 / keyint_min=24 / scenecut=40 / intra_refresh=0 / rc_lookahead=60 / rc=2pass / mbtree=1 / bitrate=1688 / ratetol=1.0 / qcomp=0.60 / qpmin=0 / qpmax=69 / qpstep=4 / cplxblur=20.0 / qblur=0.5 / vbv_maxrate=50000 / vbv_bufsize=62500 / nal_hrd=none / filler=0 / ip_ratio=1.40 / aq=2:0.70
Default : Yes
Forced : No
Audio
ID : 2
Format : AAC LC SBR
Format/Info : Advanced Audio Codec Low Complexity with Spectral Band Replication
Commercial name : HE-AAC
Format settings : Implicit
Codec ID : A_AAC-2
Duration : 1 h 56 min
Bit rate : 96.0 kb/s
Channel(s) : 2 channels
Channel layout : L R
Sampling rate : 48.0 kHz
Frame rate : 23.438 FPS (2048 SPF)
Compression mode : Lossy
Stream size : 79.9 MiB (5%)
Title : DVO | ViruseProject
Language : Russian
Default : Yes
Forced : No
Text #1
ID : 3
Format : UTF-8
Codec ID : S_TEXT/UTF8
Codec ID/Info : UTF-8 Plain Text
Duration : 1 h 55 min
Bit rate : 89 b/s
Count of elements : 1364
Stream size : 76.1 KiB (0%)
Title : Russian
Language : Russian
Default : No
Forced : No
Text #2
ID : 4
Format : UTF-8
Codec ID : S_TEXT/UTF8
Codec ID/Info : UTF-8 Plain Text
Duration : 1 h 52 min
Bit rate : 79 b/s
Count of elements : 1490
Stream size : 65.7 KiB (0%)
Title : English
Language : English
Default : No
Forced : No
Text #3
ID : 5
Format : UTF-8
Codec ID : S_TEXT/UTF8
Codec ID/Info : UTF-8 Plain Text
Duration : 1 h 55 min
Bit rate : 94 b/s
Count of elements : 1353
Stream size : 79.9 KiB (0%)
Title : Arabic
Language : Arabic
Default : No
Forced : No
Text #4
ID : 6
Format : UTF-8
Codec ID : S_TEXT/UTF8
Codec ID/Info : UTF-8 Plain Text
Duration : 1 h 55 min
Bit rate : 47 b/s
Count of elements : 1267
Stream size : 40.1 KiB (0%)
Title : Czech
Language : Czech
Default : No
Forced : No
Text #5
ID : 7
Format : UTF-8
Codec ID : S_TEXT/UTF8
Codec ID/Info : UTF-8 Plain Text
Duration : 1 h 55 min
Bit rate : 47 b/s
Count of elements : 1326
Stream size : 40.0 KiB (0%)
Title : Danish
Language : Danish
Default : No
Forced : No
Text #6
ID : 8
Format : UTF-8
Codec ID : S_TEXT/UTF8
Codec ID/Info : UTF-8 Plain Text
Duration : 1 h 51 min
Bit rate : 50 b/s
Count of elements : 1083
Stream size : 41.5 KiB (0%)
Title : Dutch
Language : Dutch
Default : No
Forced : No
Text #7
ID : 9
Format : UTF-8
Codec ID : S_TEXT/UTF8
Codec ID/Info : UTF-8 Plain Text
Duration : 1 h 55 min
Bit rate : 46 b/s
Count of elements : 1168
Stream size : 39.5 KiB (0%)
Title : Finnish
Language : Finnish
Default : No
Forced : No
Text #8
ID : 10
Format : UTF-8
Codec ID : S_TEXT/UTF8
Codec ID/Info : UTF-8 Plain Text
Duration : 1 h 55 min
Bit rate : 54 b/s
Count of elements : 1281
Stream size : 46.4 KiB (0%)
Title : French
Language : French
Default : No
Forced : No
Text #9
ID : 11
Format : UTF-8
Codec ID : S_TEXT/UTF8
Codec ID/Info : UTF-8 Plain Text
Duration : 1 h 55 min
Bit rate : 56 b/s
Count of elements : 1182
Stream size : 47.5 KiB (0%)
Title : German
Language : German
Default : No
Forced : No
Text #10
ID : 12
Format : UTF-8
Codec ID : S_TEXT/UTF8
Codec ID/Info : UTF-8 Plain Text
Duration : 1 h 55 min
Bit rate : 84 b/s
Count of elements : 1308
Stream size : 71.4 KiB (0%)
Title : Greek
Language : Greek
Default : No
Forced : No
Text #11
ID : 13
Format : UTF-8
Codec ID : S_TEXT/UTF8
Codec ID/Info : UTF-8 Plain Text
Duration : 1 h 55 min
Bit rate : 83 b/s
Count of elements : 1366
Stream size : 71.1 KiB (0%)
Title : Hebrew
Language : Hebrew
Default : No
Forced : No
Text #12
ID : 14
Format : UTF-8
Codec ID : S_TEXT/UTF8
Codec ID/Info : UTF-8 Plain Text
Duration : 1 h 55 min
Bit rate : 48 b/s
Count of elements : 1310
Stream size : 41.2 KiB (0%)
Title : Hungarian
Language : Hungarian
Default : No
Forced : No
Text #13
ID : 15
Format : UTF-8
Codec ID : S_TEXT/UTF8
Codec ID/Info : UTF-8 Plain Text
Duration : 1 h 55 min
Bit rate : 49 b/s
Count of elements : 1353
Stream size : 41.6 KiB (0%)
Title : Italian
Language : Italian
Default : No
Forced : No
Text #14
ID : 16
Format : UTF-8
Codec ID : S_TEXT/UTF8
Codec ID/Info : UTF-8 Plain Text
Duration : 1 h 55 min
Bit rate : 46 b/s
Count of elements : 1097
Stream size : 39.4 KiB (0%)
Title : Norwegian Bokmal
Language : Norwegian Bokmal
Default : No
Forced : No
Text #15
ID : 17
Format : UTF-8
Codec ID : S_TEXT/UTF8
Codec ID/Info : UTF-8 Plain Text
Duration : 1 h 55 min
Bit rate : 51 b/s
Count of elements : 1267
Stream size : 43.6 KiB (0%)
Title : Polish
Language : Polish
Default : No
Forced : No
Text #16
ID : 18
Format : UTF-8
Codec ID : S_TEXT/UTF8
Codec ID/Info : UTF-8 Plain Text
Duration : 1 h 55 min
Bit rate : 52 b/s
Count of elements : 1341
Stream size : 44.8 KiB (0%)
Title : Portuguese
Language : Portuguese
Default : No
Forced : No
Text #17
ID : 19
Format : UTF-8
Codec ID : S_TEXT/UTF8
Codec ID/Info : UTF-8 Plain Text
Duration : 1 h 55 min
Bit rate : 53 b/s
Count of elements : 1311
Stream size : 45.0 KiB (0%)
Title : Brazilian Portuguese
Language : Portuguese
Default : No
Forced : No
Text #18
ID : 20
Format : UTF-8
Codec ID : S_TEXT/UTF8
Codec ID/Info : UTF-8 Plain Text
Duration : 1 h 55 min
Bit rate : 55 b/s
Count of elements : 1341
Stream size : 46.9 KiB (0%)
Title : Romanian
Language : Romanian
Default : No
Forced : No
Text #19
ID : 21
Format : UTF-8
Codec ID : S_TEXT/UTF8
Codec ID/Info : UTF-8 Plain Text
Duration : 1 h 52 min
Bit rate : 78 b/s
Count of elements : 1447
Stream size : 64.9 KiB (0%)
Title : Spanish
Language : Spanish
Default : No
Forced : No
Text #20
ID : 22
Format : UTF-8
Codec ID : S_TEXT/UTF8
Codec ID/Info : UTF-8 Plain Text
Duration : 1 h 55 min
Bit rate : 46 b/s
Count of elements : 1229
Stream size : 39.8 KiB (0%)
Title : Swedish
Language : Swedish
Default : No
Forced : No
Text #21
ID : 23
Format : UTF-8
Codec ID : S_TEXT/UTF8
Codec ID/Info : UTF-8 Plain Text
Duration : 1 h 55 min
Bit rate : 55 b/s
Count of elements : 1361
Stream size : 47.0 KiB (0%)
Title : Turkish
Language : Turkish
Default : No
Forced : No
Релиз от: &
Автор релиза:
freetor.icu



Скачать Предчувствие через торрент https://i114.fastpic.ru/big/2021/0218/f1/327b569440984d7377e6d8881021b0f1.png Скачать, смотреть онлайн Предчувствие бесплантно в хорошем качестве Описание: После окончания академии Пипа берется за свое первое серьезное дело: вместе с Франсиско Хуанесом, инспектором отдела по ... 10 10 6
Торрент: Зарегистрирован [2021-02-18 20:32] · скачан: 118 раз
Статус: T временная
Размер: 1.45 GB
Как cкачать? Как скачать Предчувствие через торрент | UTorrent

28-11-2019 20:33  

Отключить всю рекламу на сайте

21-02-2021 09:09 Предчувствие Скачать торрент  

Лупа берется за Пупу, а Пупа берется за...
Простите, не удержался :)
Фильм не смотрел.freetor.icu



21-02-2021 13:50 Предчувствие Скачать торрент  

mag писал(а):

Лупа берется за Пупу, а Пупа берется за...
Простите, не удержался :)
Фильм не смотрел.

лупа и пупа идут за зарплатой.Лупа получила за пупу,а пупа получила за лупу)))freetor.icu



23-02-2021 08:00 Предчувствие Скачать торрент  

Фильм не осилил. Честно пытался 5 минут, потом еще 5 на быстрой перемотке, потом стер.freetor.icu



11-04-2021 09:15 Предчувствие Скачать торрент  

ниче так. на один раз сойдетfreetor.icu



08-07-2021 20:41 Предчувствие Скачать торрент  

Описание: "Пипа берется за свое... 19-летней девушки"freetor.icu



    Дорогой пользователь! Огромная просьба, поблагодарите релизера, оцените раздачу и оставьте свои комментарий, если Вы скачали Предчувствие через торрент бесплатно!
    Комментировать посты могут только пользователи прошедшие не сложную регистрацию
    Показать сообщения:    

    Предчувствие через торрент
    Скачать бесплатно Предчувствие
    Предчувствие скачать торрент
    Предчувствие смотреть онлайн
    Cкачать фильм Предчувствие бесплатно
    Предчувствие скачать торрент в хорошем качестве
    Предчувствие смотреть онлайн бесплатно в хорошем качестве


    Вы не можете начинать темы
    Вы не можете отвечать на сообщения
    Вы не можете редактировать свои сообщения
    Вы не можете удалять свои сообщения
    Вы не можете голосовать в опросах
    Вы не можете прикреплять файлы к сообщениям
    Вы можете скачивать файлы