1 сезон

1 сезон

iTunes

1

КиноПоиск HD

Кинопоиск HD

iTunes

13

1 сезон

RePack

30

Новинка

ВАЖНО

ИГРА 18+

pack

RePack

MK11
pack

Легкие деньги

RePack

jed

RePack

fifa19

RePack

RDR2

RePack

NEED FOR SPEED™ PAYBACK

4 сезон

9 сезон

Бесстыжие 9 сезон

Все сериалы

все сериалы на PB.wtf

RePack

FAR CRY 5
  
Magnet ссылка

Бывшие / Сезон: 3 / Серии: 1-8 из 8 (Иван Китаев) [2021, Драма, мелодрама, WEBRip 2160p] freetor.icu

Бывшие через торрент freetor.icu

Размер: 80.14 GB | Добавлен: 1 мес. 7 д. назад | Торрент скачан:13 раз
Скачать  

05-02-2021 11:56 Бывшие Скачать торрент  

Бывшие 3
Год выпуска: 2021
Страна: Россия
Выпущено: START STUDIO, Киностудия "Yellow, Black and White"
Жанр: Драма, мелодрама
Продолжительность: ~ 00:51:00
Субтитры: отсутствуют

Режиссер: Иван Китаев



В ролях: Любовь Аксёнова, Денис Шведов, Полина Гагарина, Наталья Рогожкина, Виталий Хаев, Григорий Чабан, Анатолий Журавлёв, Софья Лебедева, Александр Соколовский, Эра Зиганшина, Ростислав Бершауэр

Описание: Яна сделала выбор, который кардинально изменил ее жизнь. Теперь она покорная жена Кирилла Рогова, эксцентричного бизнесмена из Кемерово. Она отказалась от наркотиков, обрезала все контакты с родными и Ильей, а еще приняла свою судьбу: ведь стоит ей уйти от жестокого супруга, ее отцу снова будет грозить тюрьма. Тем временем в Москве отец Яны пытается наладить жизнь после ареста, а ее мать, распрощавшись с роскошной жизнью, ищет способы вернуть утраченное – деньги, институт и свою дочь. Илья же пытается выбраться из состояния, к которому его привело окончательное расставание с Яной, и находит новую работу благодаря необычной клиентке – писательнице с миллионами подписчиков. Получится ли у каждого из героев вернуться к нормальной жизни и избавиться наконец от своих зависимостей?

Качество: WEBRip 2160p
Формат: MKV

Видео: MPEG-4 AVC, ~ 28 Мбит/с, 3840х2160, 25,000 fps
Аудио: AAC, 2 ch, 254 Кбит/с
скриншот  скриншот  скриншот  скриншот  скриншот  

General
Unique ID : 282434040501321586857238963320748876484 (0xD47AD14DAE7DD157F4F50691A899A2C4)
Complete name : Бывшие (2020) - 3 Сезон - WEB-DL 2160p/Бывшие (2020) - S3E1 - WEB-DL 2160p.mkv
Format : Matroska
Format version : Version 4
File size : 8.88 GiB
Duration : 45 min 23 s
Overall bit rate : 28.0 Mb/s
Encoded date : UTC 2021-01-21 12:04:05
Writing application : mkvmerge v52.0.0 ('Secret For The Mad') 64-bit
Writing library : libebml v1.4.1 + libmatroska v1.6.2

Video
ID : 1
Format : AVC
Format/Info : Advanced Video Codec
Format profile : [email protected]
Format settings : CABAC / 4 Ref Frames
Format settings, CABAC : Yes
Format settings, Reference frames : 4 frames
Codec ID : V_MPEG4/ISO/AVC
Duration : 45 min 23 s
Bit rate : 28.0 Mb/s
Width : 3 840 pixels
Height : 2 160 pixels
Display aspect ratio : 16:9
Frame rate mode : Constant
Frame rate : 25.000 FPS
Color space : YUV
Chroma subsampling : 4:2:0
Bit depth : 8 bits
Scan type : Progressive
Bits/(Pixel*Frame) : 0.135
Stream size : 8.80 GiB (99%)
Writing library : x264 core 152
Encoding settings : cabac=1 / ref=2 / deblock=1:0:0 / analyse=0x3:0x113 / me=hex / subme=6 / psy=1 / psy_rd=1.00:0.00 / mixed_ref=1 / me_range=16 / chroma_me=1 / trellis=1 / 8x8dct=1 / cqm=0 / deadzone=21,11 / fast_pskip=1 / chroma_qp_offset=-2 / threads=12 / lookahead_threads=2 / sliced_threads=0 / nr=0 / decimate=1 / interlaced=0 / bluray_compat=0 / constrained_intra=0 / bframes=3 / b_pyramid=2 / b_adapt=1 / b_bias=0 / direct=1 / weightb=1 / open_gop=0 / weightp=1 / keyint=250 / keyint_min=25 / scenecut=40 / intra_refresh=0 / rc_lookahead=30 / rc=abr / mbtree=1 / bitrate=28000 / ratetol=1.0 / qcomp=0.60 / qpmin=0 / qpmax=69 / qpstep=4 / vbv_maxrate=33600 / vbv_bufsize=67200 / nal_hrd=none / filler=0 / ip_ratio=1.40 / aq=1:1.00
Default : Yes
Forced : No
Color range : Limited
Color primaries : BT.709
Transfer characteristics : BT.709
Matrix coefficients : BT.709

Audio
ID : 2
Format : AAC LC
Format/Info : Advanced Audio Codec Low Complexity
Codec ID : A_AAC-2
Duration : 45 min 23 s
Bit rate : 254 kb/s
Channel(s) : 2 channels
Channel layout : L R
Sampling rate : 48.0 kHz
Frame rate : 46.875 FPS (1024 SPF)
Compression mode : Lossy
Delay relative to video : -80 ms
Stream size : 82.6 MiB (1%)
Default : Yes
Forced : No

Раздача ведётся путём добавления новых серий, при каждом добавлении создаётся новый торрент. Чтобы начать докачку новой серии, пользователям необходимо сделать следующее:
- Остановить скачивание.
- Удалить старый торрент у себя из клиента (старые серии удалять не надо).
- Скачать новый торрент и запустить его у себя в клиенте вместо старого, при этом указать клиенту путь в старую папку куда и должно происходить скачивание новых серий.
Ваш клиент при этом должен произвести хеширование (проверку) старой папки (если не производит сам - помогите ему сделать это), и будет докачивать только те серии которых у вас ещё нет. Старые серии при этом не удаляются, а продолжают раздаваться!
freetor.icu



Скачать Бывшие через торрент https://d.radikal.ru/d06/2101/b0/0dad2aa2758e.jpg Скачать фильм Бывшие через торрент бесплантно в хорошем качестве Описание: Яна сделала выбор, который кардинально изменил ее жизнь. Теперь она покорная жена Кирилла Рогова, эксцентричного бизнесмена из ... 10 10 7
Торрент: Зарегистрирован [2021-03-11 03:37] · скачан: 13 раз
Статус: √ проверено
Размер: 80.14 GB
Как cкачать? Как скачать Бывшие через торрент | UTorrent

% Раздел Тема Автор DL S | L
Наши сериалы [ 14.74 GB ] Бывшие / Сезон: 3 / Серии: 1-8 из 8 [2021 WEBRip 1080p] bober100 Скачать
3 | 0
Наши сериалы [ 4.69 GB ] Бывшие / Сезон: 3 / Серии: 1-8 из 8 [2020 WEB-DLRip] GEKADOL Скачать
4 | 0
Наши сериалы [ 7.84 GB ] Бывшие / Сезон: 3 / Серии: 1-8 из 8 [2020 WEBRip 720р] GEKADOL Скачать
2 | 2
Наши сериалы [ 5.13 GB ] Бывшие / Сезон: 3 / Серии: 1-8 из 8 [2021 WEBRip-AVC] bober100 Скачать
2 | 0

28-11-2019 20:33  

Отключить всю рекламу на сайте

    Дорогой пользователь! Огромная просьба, поблагодарите релизера, оцените раздачу и оставьте свои комментарий, если Вы скачали Бывшие через торрент бесплатно! Внесите свою лепту в развитие PiratBit!
    Комментировать посты могут только пользователи прошедшие не сложную регистрацию
    Показать сообщения:    

    Бывшие через торрент
    Скачать бесплатно Бывшие
    Бывшие скачать торрент
    Бывшие смотреть онлайн
    Cкачать фильм Бывшие бесплатно
    Бывшие скачать торрент в хорошем качестве
    Бывшие смотреть онлайн бесплатно в хорошем качестве


    Вы не можете начинать темы
    Вы не можете отвечать на сообщения
    Вы не можете редактировать свои сообщения
    Вы не можете удалять свои сообщения
    Вы не можете голосовать в опросах
    Вы не можете прикреплять файлы к сообщениям
    Вы можете скачивать файлы