>

5.6

iTunes

6.1

MVO

5.7

MVO

1

7.4

1 сезон

6.8

iTunes

7.2

1 сезон

13

6.7

1 сезон

8.3

RePack

30

Deluxe

pack

9.9

Лицензия

ВАЖНО

ИГРА 18+

pack

7.3

RePack

MK11

7.7

RePack

jed

7.8

RePack

fifa19

8.5

RePack

RDR2

RePack

NEED FOR SPEED™ PAYBACK

4 сезон

9 сезон

Бесстыжие 9 сезон

Все сериалы

все сериалы на PB.wtf

RePack

FAR CRY 5

Anonymous, добрый день, мы катастрофически не успеваем собрать деньги на оплату серверов, помогите нам пожалуйста 5,10,15р., для нас важна любая помощь . В качестве благодарности мы отключим Вам всю рекламу на сайте (укажите свой ник в строку Ваше имя)!

×
  
Magnet ссылка

Банды Индостана / Thugs of Hindostan (Виджай Кришна Ачария) [2018, боевик, драма, история, BDRip-HEVC 1080p] 2хMVO freetor.icu

Банды Индостана через торрент freetor.icu

Раздают: 1 [ 0 KB/s ]
Размер: 9.66 GB | Добавлен: 11 мес. назад | Торрент скачан:8 раз
Смотреть онлайн Банды Индостана | Скачать    Ребята, помогите собрать деньги на оплату серверов!!!

07-10-2020 03:06 Банды Индостана Скачать торрент  

Название: Банды Индостана
Оригинальное название: Thugs of Hindostan
Год производства: 2018
Жанр: боевик, драма, история
Режиссер: Виджай Кришна Ачария
В ролях: Аамир Кхан, Амитабх Баччан, Фатима Сана Шаикх, Катрина Каиф, Ллойд Оуэн, Ронит Рой, Теренс Дж. Ротоло, Джо Аццопарди, Сатьядев Канчарана, Мохаммед Зишан Айюб

О фильме: 1795 год. С помощью пришедшей торговать Ост-Индской компании Британия сделала Индию своей колонией. Но находятся герои, не согласные с насаждаемыми порядками, и самый известный из них - предводитель морских разбойников Азаад, ставящий свободу превыше всего. Чтобы справиться с этой угрозой имперской стабильности, британский командир нанимает мелкого местного бандита, беспринципного прохвоста, готового ради денег на что угодно. Тот должен внедриться в банду и сдать Азаада властям.



Страна: Индия
Студия: Yash Raj Films
Продолжительность: 02:44:35
Перевод: любительский многоголосый

Качество: BDRip-HEVC 1080p
Кодек: HEVC (x265)
Видео: 1920x804 (2.40:1), 5648 Кбит/сек, HEVC (Main10@L.4.1@High) 10 бит
Звук:
Аудио1: AC3, 6 ch, 640 Kbps - русский Многоголосый (Honey&Haseena)
Аудио2: AC3, 2 ch, 192 Kbps - русский Многоголосый (@MUZOBOZ@)
Аудио3: AC3, 6 ch, 640 Kbps - Hindi, Original
Аудио4: AC3, 6 ch, 640 Kbps - Tamil
Аудио5: AC3, 6 ch, 640 Kbps - Telugu
Субтитры: Русские форсированные и полные (SRT), English full (SRT)
Навигация по главам: Есть
x265 [info]: frame I: 994, Avg QP:17.95 kb/s: 18949.47
x265 [info]: frame P: 51526, Avg QP:19.41 kb/s: 10899.88
x265 [info]: frame B: 184483, Avg QP:21.36 kb/s: 4108.04
x265 [info]: Weighted P-Frames: Y:8.7% UV:6.7%
x265 [info]: Weighted B-Frames: Y:10.5% UV:7.1%
x265 [info]: consecutive B-frames: 4.0% 4.5% 7.4% 47.6% 11.2% 14.7% 5.4% 3.6% 1.0% 0.4% 0.2%
x265 [info]: encoded 237003 frames in 132415.87s (1.79 fps), 5646.88 kb/s, Avg QP:20.92
Формат : Matroska
Версия формата : Version 4
Размер файла : 9,66 Гбайт
Продолжительность : 2 ч. 44 м.
Общий поток : 8 400 Кбит/сек
Название фильма : Банды.Индостана.Thugs.Of.Hindostan.2018.BDRip-HEVC.1080p
Дата кодирования : UTC 2020-10-06 04:14:46
Программа кодирования : mkvmerge v51.0.0 ('I Wish') 64-bit
Библиотека кодирования : libebml v1.4.0 + libmatroska v1.6.2
Обложка : Yes
Attachments : cover.jpg

Видео
Идентификатор : 1
Формат : HEVC
Формат/Информация : High Efficiency Video Coding
Профиль формата : Main 10@L4.1@High
Идентификатор кодека : V_MPEGH/ISO/HEVC
Продолжительность : 2 ч. 44 м.
Битрейт : 5 648 Кбит/сек
Ширина : 1 920 пикселей
Высота : 804 пикселя
Соотношение сторон : 2,40:1
Режим частоты кадров : Постоянный
Частота кадров : 24,000 кадра/сек
Цветовое пространство : YUV
Субдискретизация насыщенности : 4:2:0
Битовая глубина : 10 бит
Бит/(Пиксели*Кадры) : 0.152
Размер потока : 6,49 Гбайт (67%)
Заголовок : Thugs Of Hindostan / Rip by OldGamer
Библиотека кодирования : x265 3.4+4-g3ae3d7116:[Windows][GCC 10.2.0][64 bit] 10bit
Настройки программы : cpuid=1111039 / frame-threads=3 / numa-pools=8 / wpp / no-pmode / no-pme / no-psnr / no-ssim / log-level=2 / input-csp=1 / input-res=1920x804 / interlace=0 / total-frames=237003 / level-idc=41 / high-tier=1 / uhd-bd=0 / ref=5 / no-allow-non-conformance / no-repeat-headers / annexb / no-aud / no-hrd / info / hash=0 / no-temporal-layers / open-gop / min-keyint=23 / keyint=240 / gop-lookahead=0 / bframes=10 / b-adapt=2 / b-pyramid / bframe-bias=0 / rc-lookahead=60 / lookahead-slices=0 / scenecut=40 / hist-scenecut=0 / radl=0 / no-splice / no-intra-refresh / ctu=64 / min-cu-size=8 / rect / amp / max-tu-size=32 / tu-inter-depth=4 / tu-intra-depth=4 / limit-tu=1 / rdoq-level=2 / dynamic-rd=0.00 / no-ssim-rd / signhide / no-tskip / nr-intra=0 / nr-inter=0 / no-constrained-intra / no-strong-intra-smoothing / max-merge=5 / limit-refs=3 / no-limit-modes / me=3 / subme=7 / merange=57 / temporal-mvp / no-frame-dup / no-hme / weightp / weightb / no-analyze-src-pics / deblock=-3:-3 / no-sao / no-sao-non-deblock / rd=6 / selective-sao=0 / no-early-skip / rskip / no-fast-intra / no-tskip-fast / no-cu-lossless / b-intra / no-splitrd-skip / rdpenalty=0 / psy-rd=2.00 / psy-rdoq=1.00 / no-rd-refine / no-lossless / cbqpoffs=0 / crqpoffs=0 / rc=crf / crf=20.5 / qcomp=0.70 / qpstep=4 / stats-write=0 / stats-read=0 / vbv-maxrate=50000 / vbv-bufsize=50000 / vbv-init=0.9 / crf-max=0.0 / crf-min=0.0 / ipratio=1.40 / pbratio=1.30 / aq-mode=1 / aq-strength=1.00 / no-cutree / zone-count=1 / zones: / start-frame=231060 / end-frame=236992 / qp=36 / no-strict-cbr / qg-size=32 / no-rc-grain / qpmax=69 / qpmin=0 / no-const-vbv / sar=1 / overscan=0 / videoformat=5 / range=0 / colorprim=2 / transfer=2 / colormatrix=2 / chromaloc=0 / display-window=0 / cll=0,0 / min-luma=0 / max-luma=1023 / log2-max-poc-lsb=8 / vui-timing-info / vui-hrd-info / slices=1 / no-opt-qp-pps / no-opt-ref-list-length-pps / no-multi-pass-opt-rps / scenecut-bias=0.00 / hist-threshold=0.01 / no-opt-cu-delta-qp / no-aq-motion / no-hdr10 / no-hdr10-opt / no-dhdr10-opt / no-idr-recovery-sei / analysis-reuse-level=0 / analysis-save-reuse-level=0 / analysis-load-reuse-level=0 / scale-factor=0 / refine-intra=0 / refine-inter=0 / refine-mv=1 / refine-ctu-distortion=0 / no-limit-sao / ctu-info=0 / no-lowpass-dct / refine-analysis-type=0 / copy-pic=1 / max-ausize-factor=1.0 / no-dynamic-refine / no-single-sei / no-hevc-aq / no-svt / no-field / qp-adaptation-range=1.00 / no-scenecut-aware-qpconformance-window-offsets / right=0 / bottom=0 / decoder-max-rate=0
Язык : English
Default : Да
Forced : Нет

Аудио #1
Идентификатор : 2
Формат : AC-3
Формат/Информация : Audio Coding 3
Коммерческое название : Dolby Digital
Идентификатор кодека : A_AC3
Продолжительность : 2 ч. 44 м.
Вид битрейта : Постоянный
Битрейт : 640 Кбит/сек
Каналы : 6 каналов
Channel layout : L R C LFE Ls Rs
Частота : 48,0 КГц
Частота кадров : 31,250 кадров/сек (1536 SPF)
Метод сжатия : С потерями
Размер потока : 753 Мбайт (8%)
Заголовок : Любительский многоголосый (Honey&Haseena)
Язык : Russian
Service kind : Complete Main
Default : Да
Forced : Нет

Аудио #2
Идентификатор : 3
Формат : AC-3
Формат/Информация : Audio Coding 3
Коммерческое название : Dolby Digital
Идентификатор кодека : A_AC3
Продолжительность : 2 ч. 44 м.
Вид битрейта : Постоянный
Битрейт : 192 Кбит/сек
Каналы : 2 канала
Channel layout : L R
Частота : 48,0 КГц
Частота кадров : 31,250 кадров/сек (1536 SPF)
Метод сжатия : С потерями
Размер потока : 226 Мбайт (2%)
Заголовок : Любительский многоголосый (@MUZOBOZ@)
Язык : Russian
Service kind : Complete Main
Default : Нет
Forced : Нет

Аудио #3
Идентификатор : 4
Формат : AC-3
Формат/Информация : Audio Coding 3
Коммерческое название : Dolby Digital
Идентификатор кодека : A_AC3
Продолжительность : 2 ч. 44 м.
Вид битрейта : Постоянный
Битрейт : 640 Кбит/сек
Каналы : 6 каналов
Channel layout : L R C LFE Ls Rs
Частота : 48,0 КГц
Частота кадров : 31,250 кадров/сек (1536 SPF)
Метод сжатия : С потерями
Размер потока : 753 Мбайт (8%)
Язык : Hindi
Service kind : Complete Main
Default : Нет
Forced : Нет

Аудио #4
Идентификатор : 5
Формат : AC-3
Формат/Информация : Audio Coding 3
Коммерческое название : Dolby Digital
Идентификатор кодека : A_AC3
Продолжительность : 2 ч. 44 м.
Вид битрейта : Постоянный
Битрейт : 640 Кбит/сек
Каналы : 6 каналов
Channel layout : L R C LFE Ls Rs
Частота : 48,0 КГц
Частота кадров : 31,250 кадров/сек (1536 SPF)
Метод сжатия : С потерями
Размер потока : 753 Мбайт (8%)
Язык : Tamil
Service kind : Complete Main
Default : Нет
Forced : Нет

Аудио #5
Идентификатор : 6
Формат : AC-3
Формат/Информация : Audio Coding 3
Коммерческое название : Dolby Digital
Идентификатор кодека : A_AC3
Продолжительность : 2 ч. 44 м.
Вид битрейта : Постоянный
Битрейт : 640 Кбит/сек
Каналы : 6 каналов
Channel layout : L R C LFE Ls Rs
Частота : 48,0 КГц
Частота кадров : 31,250 кадров/сек (1536 SPF)
Метод сжатия : С потерями
Размер потока : 753 Мбайт (8%)
Язык : Telugu
Service kind : Complete Main
Default : Нет
Forced : Нет

Текст #1
Идентификатор : 7
Формат : UTF-8
Идентификатор кодека : S_TEXT/UTF8
Идентификатор кодека/Информация : UTF-8 Plain Text
Продолжительность : 2 ч. 37 м.
Битрейт : 69 бит/сек
Count of elements : 1275
Размер потока : 79,6 Кбайт (0%)
Заголовок : Полные
Язык : Russian
Default : Нет
Forced : Нет

Текст #2
Идентификатор : 8
Формат : UTF-8
Идентификатор кодека : S_TEXT/UTF8
Идентификатор кодека/Информация : UTF-8 Plain Text
Продолжительность : 2 ч. 0 м.
Битрейт : 17 бит/сек
Count of elements : 119
Размер потока : 15,1 Кбайт (0%)
Заголовок : На песни
Язык : Russian
Default : Нет
Forced : Нет

Текст #3
Идентификатор : 9
Формат : UTF-8
Идентификатор кодека : S_TEXT/UTF8
Идентификатор кодека/Информация : UTF-8 Plain Text
Продолжительность : 2 ч. 37 м.
Битрейт : 33 бит/сек
Count of elements : 1261
Размер потока : 38,8 Кбайт (0%)
Язык : English
Default : Нет
Forced : Нет

Меню
00:00:00.000 : :Глава 01
00:00:10.041 : :Глава 02
00:00:42.250 : :Глава 03
00:05:10.625 : :Глава 04
00:16:17.000 : :Глава 05
00:24:29.416 : :Глава 06
00:32:58.000 : :Глава 07
00:36:34.750 : :Глава 08
00:41:24.000 : :Глава 09
00:43:40.416 : :Глава 10
00:49:56.416 : :Глава 11
00:56:33.416 : :Глава 12
01:03:03.000 : :Глава 13
01:12:10.000 : :Глава 14
01:16:44.416 : :Глава 15
01:20:59.208 : :Глава 16
01:30:41.625 : :Глава 17
01:38:38.541 : :Глава 18
01:46:14.625 : :Глава 19
01:54:52.208 : :Глава 20
02:01:31.250 : :Глава 21
02:06:24.000 : :Глава 22
02:12:39.833 : :Глава 23
02:20:30.000 : :Глава 24
02:31:30.000 : :Глава 25
02:37:56.416 : :Глава 26


Релиз от: OldGamerfreetor.icu



Скачать Банды Индостана через торрент https://b.radikal.ru/b39/2010/b3/347c457524f7.jpg Скачать, смотреть онлайн Банды Индостана бесплантно в хорошем качестве О фильме: 1795 год. С помощью пришедшей торговать Ост-Индской компании Британия сделала Индию своей колонией. Но находятся герои, не ... 10 10 1
Торрент: Зарегистрирован [2020-10-07 03:06] · скачан: 8 раз
Статус: √ проверено
Размер: 9.66 GB
Как cкачать? Как скачать Банды Индостана через торрент | UTorrent

28-11-2019 20:33  

Отключить всю рекламу на сайте

    Дорогой пользователь! Огромная просьба, поблагодарите релизера, оцените раздачу и оставьте свои комментарий, если Вы скачали Банды Индостана через торрент бесплатно!
    Комментировать посты могут только пользователи прошедшие не сложную регистрацию
    Показать сообщения:    

    Банды Индостана через торрент
    Скачать бесплатно Банды Индостана
    Банды Индостана скачать торрент
    Банды Индостана смотреть онлайн
    Cкачать фильм Банды Индостана бесплатно
    Банды Индостана скачать торрент в хорошем качестве
    Банды Индостана смотреть онлайн бесплатно в хорошем качестве


    Вы не можете начинать темы
    Вы не можете отвечать на сообщения
    Вы не можете редактировать свои сообщения
    Вы не можете удалять свои сообщения
    Вы не можете голосовать в опросах
    Вы не можете прикреплять файлы к сообщениям
    Вы можете скачивать файлы