>

5.6

iTunes

6.1

MVO

5.7

MVO

1

7.4

1 сезон

6.8

iTunes

7.2

1 сезон

13

6.7

1 сезон

8.3

RePack

30

Deluxe

pack

9.9

Лицензия

ВАЖНО

ИГРА 18+

pack

7.3

RePack

MK11

7.7

RePack

jed

7.8

RePack

fifa19

8.5

RePack

RDR2

RePack

NEED FOR SPEED™ PAYBACK

4 сезон

9 сезон

Бесстыжие 9 сезон

Все сериалы

все сериалы на PB.wtf

RePack

FAR CRY 5

Anonymous, добрый вечер, мы катастрофически не успеваем собрать деньги на оплату серверов, помогите нам пожалуйста 5,10,15р., для нас важна любая помощь . В качестве благодарности мы отключим Вам всю рекламу на сайте (укажите свой ник в строку Ваше имя)!

×
  
Magnet ссылка

ПиКей / PK (Раджкумар Хирани) [2014 г., Фэнтези, драма, мелодрама, комедия, детектив, BDRip-AVC, Профессиональный (многоголосый)] freetor.icu

ПиКей через торрент freetor.icu

Размер: 2.33 GB | Добавлен: 1 год 7 мес. назад | Торрент скачан:31 раз
Смотреть онлайн ПиКей | Скачать    Ребята, помогите собрать деньги на оплату серверов!!!

16-02-2020 09:23 ПиКей Скачать торрент  

ПиКей / PK
Год выпуска: 2014
Страна: Индия
Жанр: Фэнтези, драма, мелодрама, комедия, детектив
Продолжительность: 02:32:32
Перевод: Профессиональный (многоголосый) - ТК ИНДИЙСКОЕ КИНО
Тип релиза: Лицензия
Субтитры: На песни, русские, форсированные

Режиссер: Раджкумар Хирани



В ролях: Аамир Кхан, Анушка Шарма, Санджай Датт, Боман Ирани, Саурабх Шукла, Сушант Сингх Раджпут, Парикшит Сахни, Амардип Джа, Рима Дебнатх, Диру Дривэди

Описание: ПиКей, инопланетянин, высаживается на Землю в городе, расположенном в пустыне Раджастан, для изучения человеческой природы и жизни на Земле. Но планета встретила его довольно грубо — у него украли пульт дистанционного управления, с помощью которого он держал связь с космическим кораблем. Теперь он должен найти пульт, а до тех пор ему придется выживать на Земле по-своему. ПиКей задает вопросы, которые никто не задавал раньше. Его детское любопытство приводит к катастрофическим последствиям. Люди, сформировавшиеся на протяжении многих поколений, вынуждены переоценивать свой мир, глядя на него невинными глазами ПиКея.

Доп. информация: Video: MPEG4 Video (H264) 1024x576 23.976fps [V: PK.2014.1080p.BDRemux.AVC.DTS-HDMA.Rus.Hin [hin] (h264 constrained baseline L1.3, yuv420p, 1024x576) [default]]
Audio: Dolby AC3 44100Hz stereo 192kbps [A: DTS-HDMA 5.1 CH @ 4106 K [MVO | ТК ИНДИЙСКОЕ КИНО] [rus] (ac3, 44100 Hz, stereo, 192 kb/s)]
Subtitle: Advanced SubStation Alpha [S: [songs + forced] [rus] (ass) [default,forced]]
Subtitle: UTF-8 [S: No subtitles]

Качество: BDRip-AVC
Формат: MKV
Видео кодек: H.264
Аудио кодек: AC3
Видео: MPEG4 Video (H264) 1024x576 23.976fps
Аудио#1: ac3, 44100 Hz, stereo, 192 kb/s)
скриншот   скриншот   скриншот   скриншот   скриншот  

General
Unique ID : 79526933172748246780575391476355327131 (0x3BD45487DFA997685A91057B4962649B)
Complete name : D:\!Video\ПиКей.mkv
Format : Matroska
Format version : Version 4
File size : 2.33 GiB
Duration : 2 h 32 min
Overall bit rate : 2 188 kb/s
Writing application : Lavf56.36.100
Writing library : Lavf56.36.100

Video
ID : 1
Format : AVC
Format/Info : Advanced Video Codec
Format profile : Baseline@L1.3
Format settings : 2 Ref Frames
Format settings, CABAC : No
Format settings, Reference fra : 2 frames
Codec ID : V_MPEG4/ISO/AVC
Duration : 2 h 32 min
Bit rate : 26.3 Mb/s
Nominal bit rate : 2 000 kb/s
Width : 1 024 pixels
Height : 576 pixels
Display aspect ratio : 16:9
Frame rate mode : Constant
Frame rate : 23.976 (24000/1001) FPS
Color space : YUV
Chroma subsampling : 4:2:0
Bit depth : 8 bits
Scan type : Progressive
Bits/(Pixel*Frame) : 1.863
Stream size : 28.1 GiB
Title : PK.2014.1080p.BDRemux.AVC.DTS-HDMA.Rus.Hin
Writing library : x264 core 148 r2579 73ae2d1
Encoding settings : cabac=0 / ref=2 / deblock=1:0:0 / analyse=0x1:0x111 / me=umh / subme=6 / psy=1 / psy_rd=1.00:0.00 / mixed_ref=1 / me_range=16 / chroma_me=1 / trellis=0 / 8x8dct=0 / cqm=0 / deadzone=21,11 / fast_pskip=1 / chroma_qp_offset=-2 / threads=3 / lookahead_threads=1 / sliced_threads=0 / nr=0 / decimate=1 / interlaced=0 / bluray_compat=0 / constrained_intra=0 / bframes=0 / weightp=0 / keyint=250 / keyint_min=23 / scenecut=40 / intra_refresh=0 / rc_lookahead=40 / rc=abr / mbtree=1 / bitrate=2000 / ratetol=1.0 / qcomp=0.60 / qpmin=0 / qpmax=69 / qpstep=4 / ip_ratio=1.40 / aq=1:1.00
Language : Hindi
Default : Yes
Forced : No

Audio
ID : 2
Format : AC-3
Format/Info : Audio Coding 3
Commercial name : Dolby Digital
Codec ID : A_AC3
Duration : 2 h 32 min
Bit rate mode : Constant
Bit rate : 192 kb/s
Channel(s) : 2 channels
Channel layout : L R
Sampling rate : 44.1 kHz
Frame rate : 28.711 FPS (1536 SPF)
Bit depth : 32 bits
Compression mode : Lossy
Delay relative to video : -6 ms
Stream size : 4.38 GiB
Title : DTS-HDMA 5.1 CH @ 4106 K [MVO | ТК ИНДИЙСКОЕ КИНО]
Writing library : Lavc56.41.100 ac3
Language : Russian
Service kind : Complete Main
Default : No
Forced : No

Text
ID : 3
Format : ASS
Codec ID : S_TEXT/ASS
Codec ID/Info : Advanced Sub Station Alpha
Duration : 2 h 18 min
Bit rate : 9 b/s
Count of elements : 112
Compression mode : Lossless
Stream size : 9.86 KiB (0%)
Title : [songs + forced]
Writing library : Lavc56.41.100 ass
Language : Russian
Default : Yes
Forced : Yes

Menu
00:00:00.000 : :
00:01:41.434 : :
00:06:45.404 : :
00:12:30.750 : :
00:16:31.991 : :
00:21:19.778 : :
00:25:58.682 : :
00:30:01.382 : :
00:32:09.427 : :
00:40:04.402 : :
00:42:32.550 : :
00:46:58.649 : :
00:50:45.584 : :
00:56:43.149 : :
01:01:24.681 : :
01:03:59.460 : :
01:08:46.330 : :
01:10:55.334 : :
01:13:51.760 : :
01:16:44.224 : :
01:17:33.273 : :
01:24:03.496 : :
01:29:04.547 : :
01:31:17.847 : :
01:37:20.501 : :
01:41:19.073 : :
01:43:31.830 : :
01:49:28.478 : :
01:53:42.440 : :
01:57:46.559 : :
02:01:30.283 : :
02:04:45.478 : :
02:19:22.354 : :
02:26:06.007 : :
02:28:04.333 : :

freetor.icu



Скачать ПиКей через торрент https://pic1.kartinco.top/images/12/7wdcm.jpg Скачать, смотреть онлайн ПиКей бесплантно в хорошем качестве Описание: ПиКей, инопланетянин, высаживается на Землю в городе, расположенном в пустыне Раджастан, для изучения человеческой природы и ... 10 10 2
Торрент: Зарегистрирован [2020-02-16 09:23] · скачан: 31 раз
Статус: √ проверено
Размер: 2.33 GB
Как cкачать? Как скачать ПиКей через торрент | UTorrent

% Раздел Тема Автор DL S | L
Индийское кино [ 1.46 GB ] ПиКей / PK [2014 Индия HDRip Любительский [den904 DeadSno] Ворон Скачать
1 | 0
T Фильмы [HD 720p, 1080p] (Звук Cam, VO, DVO) [ 2.9 GB ] ПиКей / PK [2014 Индия BDRip 720p Любительский [den904 DeadSno] GEKADOL Скачать
1 | 0
Азиатские фильмы [ 2.14 GB ] ПиКей / PK [2014 Индия HDRip Любительский ] _KaisiK_ Скачать
1 | 0

28-11-2019 20:33  

Отключить всю рекламу на сайте

    Дорогой пользователь! Огромная просьба, поблагодарите релизера, оцените раздачу и оставьте свои комментарий, если Вы скачали ПиКей через торрент бесплатно!
    Комментировать посты могут только пользователи прошедшие не сложную регистрацию
    Показать сообщения:    

    ПиКей через торрент
    Скачать бесплатно ПиКей
    ПиКей скачать торрент
    ПиКей смотреть онлайн
    Cкачать фильм ПиКей бесплатно
    ПиКей скачать торрент в хорошем качестве
    ПиКей смотреть онлайн бесплатно в хорошем качестве


    Вы не можете начинать темы
    Вы не можете отвечать на сообщения
    Вы не можете редактировать свои сообщения
    Вы не можете удалять свои сообщения
    Вы не можете голосовать в опросах
    Вы не можете прикреплять файлы к сообщениям
    Вы можете скачивать файлы