>

8.4

Хороший звук

6.1

MVO

6.4

Line & MVO

1

7.4

1 сезон

6.8

iTunes

7.2

1 сезон

13

6.7

1 сезон

8.3

RePack

30

Deluxe

pack

9.9

Лицензия

ВАЖНО

ИГРА 18+

pack

7.3

RePack

MK11

7.7

RePack

jed

7.8

RePack

fifa19

8.5

RePack

RDR2

RePack

NEED FOR SPEED™ PAYBACK

4 сезон

9 сезон

Бесстыжие 9 сезон

Все сериалы

все сериалы на PB.wtf

RePack

FAR CRY 5

Anonymous, доброе утро, мы катастрофически не успеваем собрать деньги на оплату серверов, помогите нам пожалуйста 5,10,15р., для нас важна любая помощь . В качестве благодарности мы отключим Вам всю рекламу на сайте (укажите свой ник в строку Ваше имя)!

×
  
Magnet ссылка

Демон / Raavanan (Мани Ратнам) [2010, драма, боевик, приключения, триллер, BDRip 720p by msltel] MVO freetor.icu

Демон через торрент freetor.icu

Размер: 4.5 GB | Добавлен: 1 год 7 мес. назад | Торрент скачан:12 раз
Смотреть онлайн Демон | Скачать    Ребята, помогите собрать деньги на оплату серверов!!!

28-01-2020 04:55 Демон Скачать торрент  

Название: Демон
Оригинальное название: Raavanan
Год выпуска: 2010
Страна: Индия
Жанр: драма, боевик, приключения, триллер
Продолжительность: 02:14:33
Перевод: рофессиональный многоголосый
Режиссер: Мани Ратнам
В ролях: Чийян Викрам, Айшвария Рай, Притхвирадж Сукумаран, Картик, Прабху, Приямани, Джон Виджай, Вайяпури, Ранджитха

О фильме: История любви, вражды, борьбы и силы духа. Двое мужчин и одна женщина. Кого из двоих она выберет? Кого выберет судьба? Кто окажется человеком, а кто - чудовищем? Если любишь, на что ты готов ради любви?... В основу фильма положен эпос Рамаяна.



Качество: BDRip 720p
Формат: MKV
Видео: MPEG-4 AVC, 4148 Кбит/с, 1280x544, 23.976 кадр/с
Аудио 1: русский, AC3, 192 kbps, 2 ch, 48 kHz [закадровый многоголосый, Red Media (перевод elencha&indiotka)]
Аудио 2: хинди, AC3, 448 kbps, 6 ch, 48 kHz [оригинал]
Субтитры: русские ZnaemTolk (перевод elencha&indiotka)
Общее
Уникальный идентификатор : 182085842265480362201077230913920319713 (0x88FC7525B83A05BF94D35EB929AA40E1)
Полное имя : D:\Video\Демон.2010.BDRip 720p by msltel.mkv
Формат : Matroska
Версия формата : Version 4
Размер файла : 4,50 Гбайт
Продолжительность : 2 ч. 14 м.
Общий поток : 4782 Кбит/сек
Название фильма : Rip by msltel
Дата кодирования : UTC 2020-01-28 01:37:15
Программа кодирования : mkvmerge v8.2.0 ('World of Adventure') 64bit
Библиотека кодирования : libebml v1.3.1 + libmatroska v1.4.2

Видео
Идентификатор : 1
Формат : AVC
Формат/Информация : Advanced Video Codec
Профиль формата : High@L4.1
Настройки формата : CABAC / 9 Ref Frames
Параметр CABAC формата : Да
Параметр RefFrames формата : 9 кадров
Идентификатор кодека : V_MPEG4/ISO/AVC
Продолжительность : 2 ч. 14 м.
Битрейт : 4148 Кбит/сек
Ширина : 1280 пикселей
Высота : 544 пикселя
Соотношение сторон : 2,35:1
Режим частоты кадров : Постоянный
Частота кадров : 23,976 (24000/1001) кадра/сек
Цветовое пространство : YUV
Субдискретизация насыщенности : 4:2:0
Битовая глубина : 8 бит
Тип развёртки : Прогрессивная
Бит/(Пиксели*Кадры) : 0.248
Размер потока : 3,90 Гбайт (87%)
Библиотека кодирования : x264 core 157 r2969 d4099dd
Настройки программы : cabac=1 / ref=9 / deblock=1:-2:-2 / analyse=0x3:0x113 / me=umh / subme=11 / psy=1 / psy_rd=1.00:0.15 / mixed_ref=1 / me_range=32 / chroma_me=1 / trellis=2 / 8x8dct=1 / cqm=0 / deadzone=21,11 / fast_pskip=0 / chroma_qp_offset=-3 / threads=6 / lookahead_threads=1 / sliced_threads=0 / nr=0 / decimate=1 / interlaced=0 / bluray_compat=0 / constrained_intra=0 / bframes=7 / b_pyramid=2 / b_adapt=2 / b_bias=0 / direct=1 / weightb=1 / open_gop=0 / weightp=2 / keyint=230 / keyint_min=23 / scenecut=40 / intra_refresh=0 / rc_lookahead=40 / rc=crf / mbtree=0 / crf=19.6 / qcomp=0.60 / qpmin=0 / qpmax=69 / qpstep=4 / vbv_maxrate=50000 / vbv_bufsize=62500 / crf_max=0.0 / nal_hrd=none / filler=0 / ip_ratio=1.40 / pb_ratio=1.30 / aq=1:1.00
Язык : Hindi
Default : Да
Forced : Нет

Аудио #1
Идентификатор : 2
Формат : AC-3
Формат/Информация : Audio Coding 3
Коммерческое название : Dolby Digital
Идентификатор кодека : A_AC3
Продолжительность : 2 ч. 14 м.
Вид битрейта : Постоянный
Битрейт : 192 Кбит/сек
Каналы : 2 канала
ChannelLayout : L R
Частота : 48,0 КГц
Частота кадров : 31,250 кадров/сек (1536 SPF)
Метод сжатия : С потерями
Размер потока : 185 Мбайт (4%)
Заголовок : MVO Red Media (перевод elencha&indiotka)
Язык : Russian
ServiceKind/String : Complete Main
Default : Да
Forced : Нет

Аудио #2
Идентификатор : 3
Формат : AC-3
Формат/Информация : Audio Coding 3
Коммерческое название : Dolby Digital
Идентификатор кодека : A_AC3
Продолжительность : 2 ч. 14 м.
Вид битрейта : Постоянный
Битрейт : 448 Кбит/сек
Каналы : 6 каналов
ChannelLayout : L R C LFE Ls Rs
Частота : 48,0 КГц
Частота кадров : 31,250 кадров/сек (1536 SPF)
Метод сжатия : С потерями
Размер потока : 432 Мбайт (9%)
Заголовок : original
Язык : Hindi
ServiceKind/String : Complete Main
Default : Нет
Forced : Нет

Текст
Идентификатор : 4
Формат : UTF-8
Идентификатор кодека : S_TEXT/UTF8
Идентификатор кодека/Информация : UTF-8 Plain Text
Продолжительность : 2 ч. 10 м.
Битрейт : 61 бит/сек
ElementCount : 975
Размер потока : 58,9 Кбайт (0%)
Заголовок : русские elencha&indiotka
Язык : Russian
Default : Нет
Forced : Нет
freetor.icu



Скачать Демон через торрент https://c.radikal.ru/c19/2001/48/9a9cb6862c23.jpg Скачать, смотреть онлайн Демон бесплантно в хорошем качестве О фильме: История любви, вражды, борьбы и силы духа. Двое мужчин и одна женщина. Кого из двоих она выберет? Кого выберет судьба? Кто ... 5 10 1
Торрент: Зарегистрирован [2020-01-28 04:55] · скачан: 12 раз
Статус: √ проверено
Размер: 4.5 GB
Как cкачать? Как скачать Демон через торрент | UTorrent

% Раздел Тема Автор DL S | L
Индийское кино [ 13.68 GB ] Демон / Raavanan [2010 BDRip 1080p by msltel] MVO msltel Скачать
1 | 0

28-11-2019 20:33  

Отключить всю рекламу на сайте

    Дорогой пользователь! Огромная просьба, поблагодарите релизера, оцените раздачу и оставьте свои комментарий, если Вы скачали Демон через торрент бесплатно!
    Комментировать посты могут только пользователи прошедшие не сложную регистрацию
    Показать сообщения:    

    Демон через торрент
    Скачать бесплатно Демон
    Демон скачать торрент
    Демон смотреть онлайн
    Cкачать фильм Демон бесплатно
    Демон скачать торрент в хорошем качестве
    Демон смотреть онлайн бесплатно в хорошем качестве


    Вы не можете начинать темы
    Вы не можете отвечать на сообщения
    Вы не можете редактировать свои сообщения
    Вы не можете удалять свои сообщения
    Вы не можете голосовать в опросах
    Вы не можете прикреплять файлы к сообщениям
    Вы можете скачивать файлы