>

5.6

iTunes

6.1

MVO

5.7

MVO

1

7.4

1 сезон

6.8

iTunes

7.2

1 сезон

13

6.7

1 сезон

8.3

RePack

30

Deluxe

pack

9.9

Лицензия

ВАЖНО

ИГРА 18+

pack

7.3

RePack

MK11

7.7

RePack

jed

7.8

RePack

fifa19

8.5

RePack

RDR2

RePack

NEED FOR SPEED™ PAYBACK

4 сезон

9 сезон

Бесстыжие 9 сезон

Все сериалы

все сериалы на PB.wtf

RePack

FAR CRY 5

Anonymous, добрый день, мы катастрофически не успеваем собрать деньги на оплату серверов, помогите нам пожалуйста 5,10,15р., для нас важна любая помощь . В качестве благодарности мы отключим Вам всю рекламу на сайте (укажите свой ник в строку Ваше имя)!

×
  
Magnet ссылка

Робот 2.0 / 2.0 (С. Шанкар) [2018, Фантастика, боевик, триллер, комедия, WEB-DL 1080p] DUB [iTunes] freetor.icu

Робот 2.0 через торрент freetor.icu

Размер: 3.52 GB | Добавлен: 2 года назад | Торрент скачан:122 раза
Смотреть онлайн Робот 2.0 | Скачать    Ребята, помогите собрать деньги на оплату серверов!!!

25-08-2019 00:49 Робот 2.0 Скачать торрент  

Робот 2.0 / 2.0
Год выпуска: 2018
Страна: Индия
Жанр: Фантастика, боевик, триллер, комедия
Продолжительность: 01:40:18
Перевод: Дублированный | iTunes
Субтитры: отсутствуют

Режиссер: С. Шанкар

rating

В ролях: Раджиникант, Акшай Кумар, Эми Джексон, Адиль Хуссэйн, Суданшу Пандей, Калабхаван Шаджон, Анант Нараян Махадеван, Майилсами, Ишари Ганеш, Кайзаад Котваль и др.

Описание: Миру угрожает монструозный крылатый злодей, покусившийся на самое святое, что есть у человечества — мобильные телефоны. Бессовестное чудовище в прямом смысле слова подчиняет себе устройства и создаёт из них могучую армию, способную трансформироваться во что угодно. Так и проиграли бы люди этот неравный бой, если бы не другое важное изобретение — робот Читти.

Качество: WEB-DL 1080p
Формат: MKV

Видео: MPEG-4 AVC, 1920x806, 4643 kbps, 24,000 fps
Аудио: русский, AC3, 5.1 ch, 48 kHz, 384 kbps | iTunes
скриншот  скриншот  скриншот  скриншот  скриншот  

Общее
Уникальный идентификатор : 202474328355738938332839212458325608350 (0x9853231F362AFEE9BDD4A40D7B84879E)
Полное имя : E:Torrent2Robot20WEBDL1080p.mkv
Формат : Matroska
Версия формата : Version 4 / Version 2
Размер файла : 3,52 Гбайт
Продолжительность : 1 ч. 40 м.
Общий поток : 5029 Кбит/сек
Дата кодирования : UTC 2019-08-24 18:36:51
Программа кодирования : mkvmerge v9.5.0 ('Quiet Fire') 64bit
Библиотека кодирования : libebml v1.3.4 + libmatroska v1.4.5

Видео
Идентификатор : 1
Формат : AVC
Формат/Информация : Advanced Video Codec
Профиль формата : High@L4
Настройки формата : CABAC / 5 Ref Frames
Параметр CABAC формата : Да
Параметр RefFrames формата : 5 кадров
Параметр GOP формата : N=1
Идентификатор кодека : V_MPEG4/ISO/AVC
Продолжительность : 1 ч. 40 м.
Битрейт : 4643 Кбит/сек
Ширина : 1920 пикселей
Высота : 806 пикселей
Соотношение сторон : 2,40:1
Режим частоты кадров : Постоянный
Частота кадров : 24,000 кадра/сек
Цветовое пространство : YUV
Субдискретизация насыщенности : 4:2:0
Битовая глубина : 8 бит
Тип развёртки : Прогрессивная
Бит/(Пиксели*Кадры) : 0.125
Размер потока : 3,25 Гбайт (92%)
Заголовок : Sisendrovich(R)
Язык : English
Default : Да
Forced : Нет
Цветовой диапазон : Limited
Основные цвета : BT.709
Характеристики трансфера : BT.709
Коэффициенты матрицы : BT.709

Аудио
Идентификатор : 2
Формат : AC-3
Формат/Информация : Audio Coding 3
Параметр Endianness формата : Big
Идентификатор кодека : A_AC3
Продолжительность : 1 ч. 40 м.
Вид битрейта : Постоянный
Битрейт : 384 Кбит/сек
Каналы : 6 каналов
Расположение каналов : Front: L C R, Side: L R, LFE
Частота : 48,0 КГц
Частота кадров : 31,250 кадров/сек (1536 SPF)
Битовая глубина : 16 бит
Метод сжатия : С потерями
Задержка видео : -42 мс.
Размер потока : 275 Мбайт (8%)
Язык : Russian
Default : Да
Forced : Нет

Меню
00:00:00.000 : en:Глава 1
00:08:01.625 : en:Глава 2
00:15:01.875 : en:Глава 3
00:20:19.083 : en:Глава 4
00:26:28.499 : en:Глава 5
00:32:11.332 : en:Глава 6
00:37:38.248 : en:Глава 7
00:42:10.498 : en:Глава 8
00:47:46.123 : en:Глава 9
00:52:35.248 : en:Глава 10
00:57:21.539 : en:Глава 11
01:02:43.997 : en:Глава 12
01:07:24.288 : en:Глава 13
01:13:21.579 : en:Глава 14
01:19:31.579 : en:Глава 15
01:25:54.120 : en:Глава 16

freetor.icu



Скачать Робот 2.0 через торрент http://lostpix.com/thumbs/2019-08/24/kyt5x5827aup7catnv1fdir7l.png Скачать, смотреть онлайн Робот 2.0 бесплантно в хорошем качестве Описание: Миру угрожает монструозный крылатый злодей, покусившийся на самое святое, что есть у человечества — мобильные телефоны. ... 10 10 4
Торрент: Зарегистрирован [2019-08-25 00:49] · скачан: 122 раз
Статус: √ проверено
Размер: 3.52 GB
Как cкачать? Как скачать Робот 2.0 через торрент | UTorrent

% Раздел Тема Автор DL S | L
Индийское кино [ 1.43 GB ] Робот 2.0 / 2.0 [2018 WEB-DLRip] bober100 Скачать
1 | 0

28-11-2019 20:33  

Отключить всю рекламу на сайте

    Дорогой пользователь! Огромная просьба, поблагодарите релизера, оцените раздачу и оставьте свои комментарий, если Вы скачали Робот 2.0 через торрент бесплатно!
    Комментировать посты могут только пользователи прошедшие не сложную регистрацию
    Показать сообщения:    

    Робот 2.0 через торрент
    Скачать бесплатно Робот 2.0
    Робот 2.0 скачать торрент
    Робот 2.0 смотреть онлайн
    Cкачать фильм Робот 2.0 бесплатно
    Робот 2.0 скачать торрент в хорошем качестве
    Робот 2.0 смотреть онлайн бесплатно в хорошем качестве


    Вы не можете начинать темы
    Вы не можете отвечать на сообщения
    Вы не можете редактировать свои сообщения
    Вы не можете удалять свои сообщения
    Вы не можете голосовать в опросах
    Вы не можете прикреплять файлы к сообщениям
    Вы можете скачивать файлы