>

5.6

iTunes

6.1

MVO

5.7

MVO

1

7.4

1 сезон

6.8

iTunes

7.2

1 сезон

13

6.7

1 сезон

8.3

RePack

30

Deluxe

pack

9.9

Лицензия

ВАЖНО

ИГРА 18+

pack

7.3

RePack

MK11

7.7

RePack

jed

7.8

RePack

fifa19

8.5

RePack

RDR2

RePack

NEED FOR SPEED™ PAYBACK

4 сезон

9 сезон

Бесстыжие 9 сезон

Все сериалы

все сериалы на PB.wtf

RePack

FAR CRY 5

Anonymous, доброе утро, мы катастрофически не успеваем собрать деньги на оплату серверов, помогите нам пожалуйста 5,10,15р., для нас важна любая помощь . В качестве благодарности мы отключим Вам всю рекламу на сайте (укажите свой ник в строку Ваше имя)!

×
  
Magnet ссылка

Битва при Сарагахри / Kesari (Анураг Сингх / Anurag Singh) [2019, боевик, драма, военный, история, BDRip-AVC] [AVO] (BadBajo) - ExKinoRay freetor.icu

Битва при Сарагахри через торрент freetor.icu

Качают: 1 [ 0 KB/s ]
Размер: 3.42 GB | Добавлен: 2 года 1 мес. назад | Торрент скачан:98 раз
Смотреть онлайн Битва при Сарагахри | Скачать    Ребята, помогите собрать деньги на оплату серверов!!!

07-08-2019 19:20 Битва при Сарагахри Скачать торрент  

Название: Битва при Сарагахри
Оригинальное название: Kesari
Год выхода: 2019
Жанр: Боевик, драма, военный, история
Режиссер: Анураг Сингх
В ролях: Акшай Кумар, Паринити Чопра, Сувиндер Вики, Ванш Бхардвай, Самит Барсан, Аджит Сингх, Сандип Нахар, Харвиндер Сингх Аушла, Ракеш Шарма, Адхрит Шарма

Описание: Действие фильма разворачивается в конце XIX века на территории Британской Индии. Неподалёку от города Сарагахри произошло сражение между огромным войском пуштунов и небольшим отрядом сикхов, которые контролировали ситуацию на территории, находясь на армейском посту. Оказалось, герои фильма приняли на себя мощный удар, являющийся частью широкомасштабного нападения захватчиков. В центре повествования находится бесстрашный сикх по имени Ишар. Ему предстоит наладить боевой дух своих солдат перед труднейшим боем. Сможет ли небольшой отряд сикхов дать отпор невероятно сильному и организованному войску? Удастся ли им сдержать неистовый натиск разъярённых пуштунов?

rating

Страна: Индия
Студия: Dharma Productions, Hari Om Entertainment, Azure Entertainment
Продолжительность: 02:33:49
Перевод: Авторский - А.Важенин [BadBajo]

БЕЗ КАКОЙ-ЛИБО РЕКЛАМЫ!

Формат: MKV
Качество: BDRip-AVC
Видео: MPEG-4 AVC, 1024x434 (2.35:1), 23.976 fps, 2289 Kbps, 0.215 bit/pixel
Аудио 1: 48 kHz, AC3, 5.1, 448 Kbps | AVO | RUS |
Аудио 2: 48 kHz, AC3, 5.1, 448 Kbps | Original | Hindi
Субтитры: Русские (на песни (Наталья Раевская), английские
General
Unique ID : 252707085523250363369258514862362074544 (0xBE1D9D43DDBC967591A34A0F32441DB0)
Complete name : F:\Kesari.2019.AVO.BDRip.AVC.ExKinoRay.mkv
Format : Matroska
Format version : Version 2
File size : 3.42 GiB
Duration : 2 h 33 min
Overall bit rate : 3 184 kb/s
Movie name : Kesari (2019) from ExKinoRay
Encoded date : UTC 2019-08-07 18:27:09
Writing application : mkvmerge v5.6.0 ('Kenya Kane') built on May 27 2012 16:44:04
Writing library : libebml v1.2.3 + libmatroska v1.3.0

Video
ID : 1
Format : AVC
Format/Info : Advanced Video Codec
Format profile : High@L4.1
Format settings, CABAC : Yes
Format settings, ReFrames : 11 frames
Codec ID : V_MPEG4/ISO/AVC
Duration : 2 h 33 min
Bit rate : 2 289 kb/s
Width : 1 024 pixels
Height : 434 pixels
Display aspect ratio : 2.35:1
Frame rate mode : Constant
Frame rate : 24.000 FPS
Color space : YUV
Chroma subsampling : 4:2:0
Bit depth : 8 bits
Scan type : Progressive
Bits/(Pixel*Frame) : 0.215
Stream size : 2.39 GiB (70%)
Title : Enigma
Writing library : x264 core 152 r2851 ba24899
Encoding settings : cabac=1 / ref=11 / deblock=1:-2:-3 / analyse=0x3:0x113 / me=umh / subme=10 / psy=1 / psy_rd=1.00:0.04 / mixed_ref=1 / me_range=32 / chroma_me=1 / trellis=2 / 8x8dct=1 / cqm=0 / deadzone=21,11 / fast_pskip=0 / chroma_qp_offset=-3 / threads=12 / lookahead_threads=3 / sliced_threads=0 / nr=0 / decimate=0 / interlaced=0 / bluray_compat=0 / constrained_intra=0 / bframes=12 / b_pyramid=2 / b_adapt=2 / b_bias=0 / direct=3 / weightb=1 / open_gop=0 / weightp=2 / keyint=240 / keyint_min=24 / scenecut=40 / intra_refresh=0 / rc=2pass / mbtree=0 / bitrate=2289 / ratetol=1.0 / qcomp=0.60 / qpmin=0 / qpmax=51 / qpstep=4 / cplxblur=20.0 / qblur=0.5 / ip_ratio=1.40 / pb_ratio=1.30 / aq=1:1.00
Language : English
Default : Yes
Forced : No
Color range : Limited
Color primaries : BT.709
Transfer characteristics : BT.709
Matrix coefficients : BT.709

Audio #1
ID : 2
Format : AC-3
Format/Info : Audio Coding 3
Mode extension : CM (complete main)
Format settings, Endianness : Big
Codec ID : A_AC3
Duration : 2 h 33 min
Bit rate mode : Constant
Bit rate : 448 kb/s
Channel(s) : 6 channels
Channel positions : Front: L C R, Side: L R, LFE
Sampling rate : 48.0 kHz
Frame rate : 31.250 FPS (1536 spf)
Compression mode : Lossy
Stream size : 493 MiB (14%)
Title : AVO (BadBajo)
Language : Russian
Default : Yes
Forced : No

Audio #2
ID : 3
Format : AC-3
Format/Info : Audio Coding 3
Mode extension : CM (complete main)
Format settings, Endianness : Big
Codec ID : A_AC3
Duration : 2 h 33 min
Bit rate mode : Constant
Bit rate : 448 kb/s
Channel(s) : 6 channels
Channel positions : Front: L C R, Side: L R, LFE
Sampling rate : 48.0 kHz
Frame rate : 31.250 FPS (1536 spf)
Compression mode : Lossy
Stream size : 493 MiB (14%)
Language : Hindi
Default : No
Forced : No

Text #1
ID : 4
Format : UTF-8
Codec ID : S_TEXT/UTF8
Codec ID/Info : UTF-8 Plain Text
Title : Forced (songs)
Language : Russian
Default : Yes
Forced : No

Text #2
ID : 5
Format : UTF-8
Codec ID : S_TEXT/UTF8
Codec ID/Info : UTF-8 Plain Text
Language : English
Default : No
Forced : No

Menu
00:00:00.000 : :Chapter 01
00:10:52.541 : :Chapter 02
00:27:05.000 : :Chapter 03
00:31:51.000 : :Chapter 04
00:43:10.458 : :Chapter 05
00:56:38.000 : :Chapter 06
00:59:25.208 : :Chapter 07
01:05:40.833 : :Chapter 08
01:10:18.250 : :Chapter 09
01:13:37.250 : :Chapter 10
01:15:07.750 : :Chapter 11
01:21:56.000 : :Chapter 12
01:31:46.000 : :Chapter 13
01:37:59.416 : :Chapter 14
01:40:14.166 : :Chapter 15
01:48:34.541 : :Chapter 16
01:53:09.291 : :Chapter 17
02:06:11.583 : :Chapter 18
02:07:13.166 : :Chapter 19
02:10:16.208 : :Chapter 20
02:19:27.625 : :Chapter 21
02:20:59.500 : :Chapter 22
02:25:00.000 : :Chapter 23
02:28:42.500 : :Chapter 24


Релиз от:

Автор релиза: freetor.icu



Скачать Битва при Сарагахри через торрент https://d.radikal.ru/d11/1905/1e/c50d7ee3215f.jpg Скачать, смотреть онлайн Битва при Сарагахри бесплантно в хорошем качестве Описание: Действие фильма разворачивается в конце XIX века на территории Британской Индии. Неподалёку от города Сарагахри произошло ... 5 10 1
Info! Золотая раздача, скачанное не засчитывается.
Торрент: Зарегистрирован [2019-08-07 19:20] · скачан: 98 раз
Статус: √ проверено
Размер: 3.42 GB
Как cкачать? Как скачать Битва при Сарагахри через торрент | UTorrent

28-11-2019 20:33  

Отключить всю рекламу на сайте

    Дорогой пользователь! Огромная просьба, поблагодарите релизера, оцените раздачу и оставьте свои комментарий, если Вы скачали Битва при Сарагахри через торрент бесплатно!
    Комментировать посты могут только пользователи прошедшие не сложную регистрацию
    Показать сообщения:    

    Битва при Сарагахри через торрент
    Скачать бесплатно Битва при Сарагахри
    Битва при Сарагахри скачать торрент
    Битва при Сарагахри смотреть онлайн
    Cкачать фильм Битва при Сарагахри бесплатно
    Битва при Сарагахри скачать торрент в хорошем качестве
    Битва при Сарагахри смотреть онлайн бесплатно в хорошем качестве


    Вы не можете начинать темы
    Вы не можете отвечать на сообщения
    Вы не можете редактировать свои сообщения
    Вы не можете удалять свои сообщения
    Вы не можете голосовать в опросах
    Вы не можете прикреплять файлы к сообщениям
    Вы можете скачивать файлы