>

5.6

iTunes

6.1

MVO

5.7

MVO

1

7.4

1 сезон

6.8

iTunes

7.2

1 сезон

13

6.7

1 сезон

8.3

RePack

30

Deluxe

pack

9.9

Лицензия

ВАЖНО

ИГРА 18+

pack

7.3

RePack

MK11

7.7

RePack

jed

7.8

RePack

fifa19

8.5

RePack

RDR2

RePack

NEED FOR SPEED™ PAYBACK

4 сезон

9 сезон

Бесстыжие 9 сезон

Все сериалы

все сериалы на PB.wtf

RePack

FAR CRY 5

Anonymous, добрый день, мы катастрофически не успеваем собрать деньги на оплату серверов, помогите нам пожалуйста 5,10,15р., для нас важна любая помощь . В качестве благодарности мы отключим Вам всю рекламу на сайте (укажите свой ник в строку Ваше имя)!

×
  
Magnet ссылка

Битва при Сарагахри / Kesari (Анураг Сингх) [2019, Боевик, драма, военный, история, WEB-DL 1080p] AVO [BadBajo] freetor.icu

Битва при Сарагахри через торрент freetor.icu

Размер: 10.4 GB | Добавлен: 2 года 4 мес. назад | Торрент скачан:46 раз
Смотреть онлайн Битва при Сарагахри | Скачать    Ребята, помогите собрать деньги на оплату серверов!!!

20-05-2019 05:27 Битва при Сарагахри Скачать торрент  

Битва при Сарагахри / Kesari Год выпуска: 2019
Страна: Индия
Жанр: Боевик, драма, военный, история
Продолжительность: 02:33:17
Перевод: Авторский (одноголосый) |
Субтитры: Английские (отключаемые)

Режиссер: Анураг Сингх

rating


В ролях:

Акшай Кумар, Паринити Чопра, Сувиндер Вики, Ванш Бхардвай, Самит Барсан, Аджит Сингх, Сандип Нахар, Харвиндер Сингх Аушла, Ракеш Шарма, Адхрит Шарма

Описание:

Британская Индия, 12 сентября 1897 года. Отряд сикхов Британской Индийской армии на армейском посту в составе 21-го человека подвергается нападению десятитысячного войска пуштунов.

Качество: WEB-DL 1080p
Формат: MKV

Видео: 1920х1080, ~8432 Kbps, 23.976 (24000/1001) FPS
Аудио#1: Русский: AC3, 6 ch, 640 Kbps (BadBajo)
Аудио#2: Индийский: Е-AC3, 6 ch, 640 Kbps
скриншот  скриншот  скриншот  

скриншот  скриншот  скриншот  

Общее
Уникальный идентификатор : 315327034374391341479258077518999229783 (0xED39C71C6F92A4C40CB52658F2B29557)
Полное имя : D:\Kesari.2019.Hindi.1080p_rus_BadBajo.mkv
Формат : Matroska
Версия формата : Version 4 / Version 2
Размер файла : 10,4 Гбайт
Продолжительность : 2 ч. 33 м.
Общий поток : 9714 Кбит/сек
Название фильма : Kesari.2019.Hindi.1080p_rus_BadBajo
Дата кодирования : UTC 2019-05-19 13:33:21
Программа кодирования : mkvmerge v33.1.0 ('Primrose') 64-bit
Библиотека кодирования : libebml v1.3.7 + libmatroska v1.5.0
Обложка : Yes
Attachments : cover.jpg

Видео
Идентификатор : 1
Формат : AVC
Формат/Информация : Advanced Video Codec
Профиль формата : High@L4
Параметр CABAC формата : Да
Параметр RefFrames формата : 4 кадра
Идентификатор кодека : V_MPEG4/ISO/AVC
Продолжительность : 2 ч. 33 м.
Вид битрейта : Постоянный
Битрейт : 8432 Кбит/сек
Номинальный битрейт : 10000 Кбит/сек
Ширина : 1920 пикселей
Высота : 1080 пикселей
Соотношение сторон : 16:9
Режим частоты кадров : Постоянный
Частота кадров : 24,000 кадра/сек
Цветовое пространство : YUV
Субдискретизация насыщенности : 4:2:0
Битовая глубина : 8 бит
Тип развёртки : Прогрессивная
Бит/(Пиксели*Кадры) : 0.166
Размер потока : 8,82 Гбайт (85%)
Язык : English
Default : Да
Forced : Нет
Цветовой диапазон : Limited
Основные цвета : BT.709
Характеристики трансфера : BT.709
Коэффициенты матрицы : BT.709

Аудио #1
Идентификатор : 2
Формат : AC-3
Формат/Информация : Audio Coding 3
Расширение режима : CM (complete main)
Параметр Endianness формата : Big
Идентификатор кодека : A_AC3
Продолжительность : 2 ч. 33 м.
Вид битрейта : Постоянный
Битрейт : 640 Кбит/сек
Каналы : 6 каналов
Расположение каналов : Front: L C R, Side: L R, LFE
Частота : 48,0 КГц
Частота кадров : 31,250 кадров/сек (1536 spf)
Метод сжатия : С потерями
Размер потока : 702 Мбайт (7%)
Заголовок : Kesari.2019.Hindi.1080p_rus_BadBajo
Язык : Russian
Default : Да
Forced : Да

Аудио #2
Идентификатор : 3
Формат : E-AC-3
Формат/Информация : Audio Coding 3
Параметр Endianness формата : Big
Идентификатор кодека : A_EAC3
Продолжительность : 2 ч. 33 м.
Вид битрейта : Постоянный
Битрейт : 640 Кбит/сек
Каналы : 6 каналов
Расположение каналов : Front: L C R, Side: L R, LFE
Частота : 48,0 КГц
Частота кадров : 187,500 кадров/сек (256 spf)
Метод сжатия : С потерями
Размер потока : 702 Мбайт (7%)
Заголовок : Hindi
Язык : Hindi
Default : Нет
Forced : Нет

Текст
Идентификатор : 4
Формат : UTF-8
Идентификатор кодека : S_TEXT/UTF8
Идентификатор кодека/Информация : UTF-8 Plain Text
Заголовок : English (SDH)
Язык : English
Default : Нет
Forced : Нет

freetor.icu



Скачать Битва при Сарагахри через торрент https://d.radikal.ru/d11/1905/1e/c50d7ee3215f.jpg Скачать, смотреть онлайн Битва при Сарагахри бесплантно в хорошем качестве Описание: Британская Индия, 12 сентября 1897 года. Отряд сикхов Британской Индийской армии на армейском посту в составе 21-го человека ... 9.8 10 5
Торрент: Зарегистрирован [2019-05-20 05:27] · скачан: 46 раз
Статус: √ проверено
Размер: 10.4 GB
Как cкачать? Как скачать Битва при Сарагахри через торрент | UTorrent

% Раздел Тема Автор DL S | L
Индийское кино [ 7.75 GB ] Битва при Сарагахри / Kesari [2019 военный история BDRip-HEVC 1080p] VO + AVO RealOldGamer Скачать
1 | 0
Индийское кино [ 38.81 GB ] Битва при Сарагахри / Kesari [2019 военный история BD Remux 1080p] MVO [OnisFilms] +AVO [BadBajo] bober100 Скачать
1 | 0
Индийское кино [ 3.42 GB ] Битва при Сарагахри / Kesari [2019 военный история BDRip-AVC] [AVO] - ExKinoRay Enigma2010 Скачать
3 | 0
Индийское кино [ 2.18 GB ] Битва при Сарагахри / Kesari [2019 военный история WEB-DLRip] [AVO] killermax2013 Скачать
1 | 0

28-11-2019 20:33  

Отключить всю рекламу на сайте

    Дорогой пользователь! Огромная просьба, поблагодарите релизера, оцените раздачу и оставьте свои комментарий, если Вы скачали Битва при Сарагахри через торрент бесплатно!
    Комментировать посты могут только пользователи прошедшие не сложную регистрацию
    Показать сообщения:    

    Битва при Сарагахри через торрент
    Скачать бесплатно Битва при Сарагахри
    Битва при Сарагахри скачать торрент
    Битва при Сарагахри смотреть онлайн
    Cкачать фильм Битва при Сарагахри бесплатно
    Битва при Сарагахри скачать торрент в хорошем качестве
    Битва при Сарагахри смотреть онлайн бесплатно в хорошем качестве


    Вы не можете начинать темы
    Вы не можете отвечать на сообщения
    Вы не можете редактировать свои сообщения
    Вы не можете удалять свои сообщения
    Вы не можете голосовать в опросах
    Вы не можете прикреплять файлы к сообщениям
    Вы можете скачивать файлы