>

5.6

iTunes

6.1

MVO

5.7

MVO

1

7.4

1 сезон

6.8

iTunes

7.2

1 сезон

13

6.7

1 сезон

8.3

RePack

30

Deluxe

pack

9.9

Лицензия

ВАЖНО

ИГРА 18+

pack

7.3

RePack

MK11

7.7

RePack

jed

7.8

RePack

fifa19

8.5

RePack

RDR2

RePack

NEED FOR SPEED™ PAYBACK

4 сезон

9 сезон

Бесстыжие 9 сезон

Все сериалы

все сериалы на PB.wtf

RePack

FAR CRY 5

Anonymous, добрый вечер, мы катастрофически не успеваем собрать деньги на оплату серверов, помогите нам пожалуйста 5,10,15р., для нас важна любая помощь . В качестве благодарности мы отключим Вам всю рекламу на сайте (укажите свой ник в строку Ваше имя)!

×
  
Magnet ссылка

Банды Индостана / Thugs of Hindostan (Виджай Кришна Ачария) [2018, боевик, драма, история, BDRip-AVC] MVO [Honey&Haseena] - ExKinoRay freetor.icu

Банды Индостана через торрент freetor.icu

Размер: 3.46 GB | Добавлен: 2 года 7 мес. назад | Торрент скачан:36 раз
Смотреть онлайн Банды Индостана | Скачать    Ребята, помогите собрать деньги на оплату серверов!!!

16-02-2019 04:25 Банды Индостана Скачать торрент  

Название: Банды Индостана
Оригинальное название: Thugs of Hindostan
Год выпуска: 2018
Жанр: Боевик, драма, исторический
Выпущено: Индия, Yash Raj Films
Режиссер: Виджай Кришна Ачария
Перевод: Профессиональный (многоголосый) | Honey&Haseena
В ролях: Катрина Каиф, Аамир Кхан, Амитабх Баччан, Фатима Сана Шаикх, Абдул Квадир Амин, Ллойд Оуэн, Ронит Рой, Мохаммед Зишан Айюб, Сатьядев Канчарана, Джо Аццопарди

Описание: 1795 год. С помощью пришедшей торговать Ост-Индской компании Британия сделала Индию своей колонией. Но находятся герои, не согласные с насаждаемыми порядками, и самый известный из них — предводитель морских разбойников Азаад, ставящий свободу превыше всего. Чтобы справиться с этой угрозой имперской стабильности, британский командир нанимает мелкого местного бандита, беспринципного прохвоста, готового ради денег на что угодно. Тот должен внедриться в банду и убить Азаада.

rating

Формат: MKV
Качество: BDRip-AVC (источник: Blu-Ray Remux / 1080p)
Видео: 1024х428 (2.40:1), 2110 Kbps, 24.000 fps, 0.201 bit/pixel
Аудио 1: 48.0 kHz, AC3 Dolby Digital, 3/2 (L,C,R,l,r) + LFE ch, 448 Kbps - Русский
Аудио 2: 48.0 kHz, AC3 Dolby Digital, 3/2 (L,C,R,l,r) + LFE ch, 448 Kbps - Хинди
Субтитры: Русские (полные, форсированные) Наталья Раевская aka Enigma, английские
General
Unique ID : 176286373070056407791250364687494732987 (0x849F853D6928D23F8510DF2864C8DCBB)
Complete name : D:\Thugs.Of.Hindostan.2018.MVO.BDRip.AVC.ExKinoRay.mkv
Format : Matroska
Format version : Version 2
File size : 3.46 GiB
Duration : 2 h 44 min
Overall bit rate : 3 007 kb/s
Movie name : Thugs Of Hindostan (2018) from ExKinoRay
Encoded date : UTC 2019-02-16 03:25:55
Writing application : mkvmerge v5.6.0 ('Kenya Kane') built on May 27 2012 16:44:04
Writing library : libebml v1.2.3 + libmatroska v1.3.0

Video
ID : 1
Format : AVC
Format/Info : Advanced Video Codec
Format profile : High@L4.1
Format settings, CABAC : Yes
Format settings, ReFrames : 11 frames
Codec ID : V_MPEG4/ISO/AVC
Duration : 2 h 44 min
Bit rate : 2 110 kb/s
Width : 1 024 pixels
Height : 428 pixels
Display aspect ratio : 2.40:1
Frame rate mode : Constant
Frame rate : 24.000 FPS
Color space : YUV
Chroma subsampling : 4:2:0
Bit depth : 8 bits
Scan type : Progressive
Bits/(Pixel*Frame) : 0.201
Stream size : 2.36 GiB (68%)
Title : Enigma
Writing library : x264 core 152 r2851 ba24899
Encoding settings : cabac=1 / ref=11 / deblock=1:-2:-2 / analyse=0x3:0x113 / me=umh / subme=10 / psy=1 / psy_rd=0.98:0.05 / mixed_ref=1 / me_range=32 / chroma_me=1 / trellis=2 / 8x8dct=1 / cqm=0 / deadzone=21,11 / fast_pskip=0 / chroma_qp_offset=-3 / threads=12 / lookahead_threads=3 / sliced_threads=0 / nr=0 / decimate=0 / interlaced=0 / bluray_compat=0 / constrained_intra=0 / bframes=10 / b_pyramid=2 / b_adapt=2 / b_bias=0 / direct=3 / weightb=1 / open_gop=0 / weightp=2 / keyint=240 / keyint_min=23 / scenecut=40 / intra_refresh=0 / rc=2pass / mbtree=0 / bitrate=2110 / ratetol=1.0 / qcomp=0.60 / qpmin=0 / qpmax=51 / qpstep=4 / cplxblur=20.0 / qblur=0.5 / ip_ratio=1.40 / pb_ratio=1.30 / aq=2:0.90
Language : English
Default : Yes
Forced : No
Color range : Limited
Color primaries : BT.709
Transfer characteristics : BT.709
Matrix coefficients : BT.709

Audio #1
ID : 2
Format : AC-3
Format/Info : Audio Coding 3
Mode extension : CM (complete main)
Format settings, Endianness : Big
Codec ID : A_AC3
Duration : 2 h 44 min
Bit rate mode : Constant
Bit rate : 448 kb/s
Channel(s) : 6 channels
Channel positions : Front: L C R, Side: L R, LFE
Sampling rate : 48.0 kHz
Frame rate : 31.250 FPS (1536 spf)
Compression mode : Lossy
Stream size : 527 MiB (15%)
Title : MVO (Honey&Haseena)
Language : Russian
Default : Yes
Forced : No

Audio #2
ID : 3
Format : AC-3
Format/Info : Audio Coding 3
Mode extension : CM (complete main)
Format settings, Endianness : Big
Codec ID : A_AC3
Duration : 2 h 44 min
Bit rate mode : Constant
Bit rate : 448 kb/s
Channel(s) : 6 channels
Channel positions : Front: L C R, Side: L R, LFE
Sampling rate : 48.0 kHz
Frame rate : 31.250 FPS (1536 spf)
Compression mode : Lossy
Stream size : 527 MiB (15%)
Title : original
Language : Hindi
Default : No
Forced : No

Text #1
ID : 4
Format : UTF-8
Codec ID : S_TEXT/UTF8
Codec ID/Info : UTF-8 Plain Text
Title : Forced (songs) from Enigma
Language : Russian
Default : Yes
Forced : No

Text #2
ID : 5
Format : UTF-8
Codec ID : S_TEXT/UTF8
Codec ID/Info : UTF-8 Plain Text
Title : Full (Enigma)
Language : Russian
Default : No
Forced : No

Text #3
ID : 6
Format : UTF-8
Codec ID : S_TEXT/UTF8
Codec ID/Info : UTF-8 Plain Text
Language : English
Default : No
Forced : No

Menu
00:00:00.000 : :Глава 01
00:00:10.041 : :Глава 02
00:00:42.250 : :Глава 03
00:05:10.625 : :Глава 04
00:16:17.000 : :Глава 05
00:24:29.416 : :Глава 06
00:32:58.000 : :Глава 07
00:36:34.750 : :Глава 08
00:41:24.000 : :Глава 09
00:43:40.416 : :Глава 10
00:49:56.416 : :Глава 11
00:56:33.416 : :Глава 12
01:03:03.000 : :Глава 13
01:12:10.000 : :Глава 14
01:16:44.416 : :Глава 15
01:20:59.208 : :Глава 16
01:30:41.625 : :Глава 17
01:38:38.541 : :Глава 18
01:46:14.625 : :Глава 19
01:54:52.208 : :Глава 20
02:01:31.250 : :Глава 21
02:06:24.000 : :Глава 22
02:12:39.833 : :Глава 23
02:20:30.000 : :Глава 24
02:31:30.000 : :Глава 25
02:37:56.416 : :Глава 26
Релиз от:

Автор релиза: freetor.icu



Скачать Банды Индостана через торрент https://d.radikal.ru/d37/1902/48/3f5333f229c1.jpg Скачать, смотреть онлайн Банды Индостана бесплантно в хорошем качестве Описание: 1795 год. С помощью пришедшей торговать Ост-Индской компании Британия сделала Индию своей колонией. Но находятся герои, не ... 10 10 2
Info! Золотая раздача, скачанное не засчитывается.
Торрент: Зарегистрирован [2019-02-16 04:25] · скачан: 36 раз
Статус: √ проверено
Размер: 3.46 GB
Как cкачать? Как скачать Банды Индостана через торрент | UTorrent

% Раздел Тема Автор DL S | L
Индийское кино [ 2.18 GB ] Банды Индостана / Thugs of Hindostan [2018 история BDRip] MVO [Honey&Haseena] - ExKinoRay Enigma2010 Скачать
5 | 0
Индийское кино [ 7.01 GB ] Банды Индостана / Thugs of Hindostan [2018 история BDRip 720p] MVO [Honey&Haseena] - ExKinoRay Enigma2010 Скачать
1 | 0
T Индийское кино [ 1.46 GB ] Банды Индостана / Thugs of Hindostan [2018 история BDRip] MVO [@MUZOBOZ@] - ExKinoRay Enigma2010 Скачать
5 | 0

28-11-2019 20:33  

Отключить всю рекламу на сайте

    Дорогой пользователь! Огромная просьба, поблагодарите релизера, оцените раздачу и оставьте свои комментарий, если Вы скачали Банды Индостана через торрент бесплатно!
    Комментировать посты могут только пользователи прошедшие не сложную регистрацию
    Показать сообщения:    

    Банды Индостана через торрент
    Скачать бесплатно Банды Индостана
    Банды Индостана скачать торрент
    Банды Индостана смотреть онлайн
    Cкачать фильм Банды Индостана бесплатно
    Банды Индостана скачать торрент в хорошем качестве
    Банды Индостана смотреть онлайн бесплатно в хорошем качестве


    Вы не можете начинать темы
    Вы не можете отвечать на сообщения
    Вы не можете редактировать свои сообщения
    Вы не можете удалять свои сообщения
    Вы не можете голосовать в опросах
    Вы не можете прикреплять файлы к сообщениям
    Вы можете скачивать файлы