>

5.6

iTunes

6.1

MVO

5.7

MVO

1

7.4

1 сезон

6.8

iTunes

7.2

1 сезон

13

6.7

1 сезон

8.3

RePack

30

Deluxe

pack

9.9

Лицензия

ВАЖНО

ИГРА 18+

pack

7.3

RePack

MK11

7.7

RePack

jed

7.8

RePack

fifa19

8.5

RePack

RDR2

RePack

NEED FOR SPEED™ PAYBACK

4 сезон

9 сезон

Бесстыжие 9 сезон

Все сериалы

все сериалы на PB.wtf

RePack

FAR CRY 5

Anonymous, доброе утро, мы катастрофически не успеваем собрать деньги на оплату серверов, помогите нам пожалуйста 5,10,15р., для нас важна любая помощь . В качестве благодарности мы отключим Вам всю рекламу на сайте (укажите свой ник в строку Ваше имя)!

×
  
Magnet ссылка

Банды Индостана / Thugs of Hindostan (Виджай Кришна Ачария) [2018, боевик, драма, история, BDRip 1080p] MVO [Honey&Haseena] freetor.icu

Банды Индостана через торрент freetor.icu

Размер: 11.65 GB | Добавлен: 2 года 7 мес. назад | Торрент скачан:16 раз
Смотреть онлайн Банды Индостана | Скачать    Ребята, помогите собрать деньги на оплату серверов!!!

16-02-2019 01:37 Банды Индостана Скачать торрент  

Банды Индостана / Thugs of Hindostan Год выпуска: 2018
Страна: Индия
Жанр: боевик, драма, история
Продолжительность: 02:44:35
Перевод: Профессиональный (многоголосый) | Honey&Haseena
Субтитры: Русские (полные, форсированные), английские

Режиссер: Виджай Кришна Ачария

rating


В ролях:

Катрина Каиф, Аамир Кхан, Амитабх Баччан, Фатима Сана Шаикх, Абдул Квадир Амин, Ллойд Оуэн, Ронит Рой, Мохаммед Зишан Айюб, Сатьядев Канчарана, Джо Аццопарди

Описание:

1795 год. С помощью пришедшей торговать Ост-Индской компании Британия сделала Индию своей колонией. Но находятся герои, не согласные с насаждаемыми порядками, и самый известный из них - предводитель морских разбойников Азаад, ставящий свободу превыше всего. Чтобы справиться с этой угрозой имперской стабильности, британский командир нанимает мелкого местного бандита, беспринципного прохвоста, готового ради денег на что угодно. Тот должен внедриться в банду и убить Азаада.

Качество: BDRip 1080p
Формат: MKV

Видео: MPEG-4 AVC, 8851 Кбит/с, 1920х804
Аудио#1: Русский (АС3, 6 ch, 640 Кбит/с)- Honey&Haseena
Аудио#2: Хинди (АС3, 6 ch, 640 Кбит/с)
скриншот  скриншот  скриншот  скриншот  скриншот  

Формат : Matroska
Версия формата : Version 2
Размер файла : 11,6 Гбайт
Продолжительность : 2 ч. 44 м.
Общий поток : 10,1 Мбит/сек
Название фильма : ~V ad~
Дата кодирования : UTC 2019-02-15 17:24:57
Программа кодирования : mkvmerge v6.5.0 ('Isn't she lovely') built on Oct 20 2013 12:50:05
Библиотека кодирования : libebml v1.3.0 + libmatroska v1.4.1
Обложка : Yes
Attachments : cover.jpg

Видео
Идентификатор : 1
Формат : AVC
Формат/Информация : Advanced Video Codec
Профиль формата : High@L4.1
Настройки формата : CABAC / 5 Ref Frames
Параметр CABAC формата : Да
Параметр RefFrames формата : 5 кадров
Идентификатор кодека : V_MPEG4/ISO/AVC
Продолжительность : 2 ч. 44 м.
Битрейт : 8851 Кбит/сек
Ширина : 1920 пикселей
Высота : 804 пикселя
Соотношение сторон : 2,40:1
Режим частоты кадров : Постоянный
Частота кадров : 24,000 кадра/сек
Цветовое пространство : YUV
Субдискретизация насыщенности : 4:2:0
Битовая глубина : 8 бит
Тип развёртки : Прогрессивная
Бит/(Пиксели*Кадры) : 0.239
Размер потока : 9,94 Гбайт (85%)
Заголовок : ~V~
Библиотека кодирования : x264 core 157 r2935 545de2f
Настройки программы : cabac=1 / ref=5 / deblock=1:-3:-3 / analyse=0x3:0x133 / me=umh / subme=11 / psy=1 / psy_rd=1.00:0.00 / mixed_ref=1 / me_range=32 / chroma_me=1 / trellis=2 / 8x8dct=1 / cqm=0 / deadzone=21,11 / fast_pskip=0 / chroma_qp_offset=-2 / threads=12 / lookahead_threads=1 / sliced_threads=0 / nr=0 / decimate=0 / interlaced=0 / bluray_compat=0 / constrained_intra=0 / bframes=10 / b_pyramid=2 / b_adapt=2 / b_bias=0 / direct=3 / weightb=1 / open_gop=0 / weightp=2 / keyint=240 / keyint_min=24 / scenecut=40 / intra_refresh=0 / rc=2pass / mbtree=0 / bitrate=8851 / ratetol=1.0 / qcomp=0.80 / qpmin=0 / qpmax=69 / qpstep=4 / cplxblur=20.0 / qblur=0.5 / ip_ratio=1.30 / pb_ratio=1.30 / aq=3:0.70
Язык : Английский
Default : Да
Forced : Нет

Аудио #1
Идентификатор : 2
Формат : AC-3
Формат/Информация : Audio Coding 3
Коммерческое название : Dolby Digital
Идентификатор кодека : A_AC3
Продолжительность : 2 ч. 44 м.
Вид битрейта : Постоянный
Битрейт : 640 Кбит/сек
Каналы : 6 каналов
Channel layout : L R C LFE Ls Rs
Частота : 48,0 КГц
Частота кадров : 31,250 кадров/сек (1536 SPF)
Битовая глубина : 16 бит
Метод сжатия : С потерями
Размер потока : 753 Мбайт (6%)
Заголовок : MVO [Honey&Haseena]
Язык : Русский
Service Kind : Complete Main
Default : Да
Forced : Да

Аудио #2
Идентификатор : 3
Формат : AC-3
Формат/Информация : Audio Coding 3
Коммерческое название : Dolby Digital
Идентификатор кодека : A_AC3
Продолжительность : 2 ч. 44 м.
Вид битрейта : Постоянный
Битрейт : 640 Кбит/сек
Каналы : 6 каналов
Channel layout : L R C LFE Ls Rs
Частота : 48,0 КГц
Частота кадров : 31,250 кадров/сек (1536 SPF)
Битовая глубина : 16 бит
Метод сжатия : С потерями
Размер потока : 753 Мбайт (6%)
Язык : Хинди
Service Kind : Complete Main
Default : Нет
Forced : Нет

Текст #1
Идентификатор : 4
Формат : UTF-8
Идентификатор кодека : S_TEXT/UTF8
Идентификатор кодека/Информация : UTF-8 Plain Text
Заголовок : Full
Язык : Русский
Default : Нет
Forced : Нет

Текст #2
Идентификатор : 5
Формат : UTF-8
Идентификатор кодека : S_TEXT/UTF8
Идентификатор кодека/Информация : UTF-8 Plain Text
Заголовок : Forc
Язык : Русский
Default : Да
Forced : Да

Текст #3
Идентификатор : 6
Формат : UTF-8
Идентификатор кодека : S_TEXT/UTF8
Идентификатор кодека/Информация : UTF-8 Plain Text
Язык : Английский
Default : Нет
Forced : Нет

Меню
00:00:00.000 : :Глава 01
00:00:10.041 : :Глава 02
00:00:42.250 : :Глава 03
00:05:10.625 : :Глава 04
00:16:17.000 : :Глава 05
00:24:29.416 : :Глава 06
00:32:58.000 : :Глава 07
00:36:34.750 : :Глава 08
00:41:24.000 : :Глава 09
00:43:40.416 : :Глава 10
00:49:56.416 : :Глава 11
00:56:33.416 : :Глава 12
01:03:03.000 : :Глава 13
01:12:10.000 : :Глава 14
01:16:44.416 : :Глава 15
01:20:59.208 : :Глава 16
01:30:41.625 : :Глава 17
01:38:38.541 : :Глава 18
01:46:14.625 : :Глава 19
01:54:52.208 : :Глава 20
02:01:31.250 : :Глава 21
02:06:24.000 : :Глава 22
02:12:39.833 : :Глава 23
02:20:30.000 : :Глава 24
02:31:30.000 : :Глава 25
02:37:56.416 : :Глава 26

freetor.icu



Скачать Банды Индостана через торрент http://a.radikal.ru/a27/1902/ca/b92d40b6f264.png Скачать, смотреть онлайн Банды Индостана бесплантно в хорошем качестве Описание: 1795 год. С помощью пришедшей торговать Ост-Индской компании Британия сделала Индию своей колонией. Но находятся герои, не ... 10 10 2
Торрент: Зарегистрирован [2019-02-16 01:37] · скачан: 16 раз
Статус: √ проверено
Размер: 11.65 GB
Как cкачать? Как скачать Банды Индостана через торрент | UTorrent

% Раздел Тема Автор DL S | L
Индийское кино [ 9.66 GB ] Банды Индостана / Thugs of Hindostan [2018 история BDRip-HEVC 1080p] 2хMVO RealOldGamer Скачать
2 | 0
Индийское кино [ 2.18 GB ] Банды Индостана / Thugs of Hindostan [2018 история BDRip] MVO [Honey&Haseena] - ExKinoRay Enigma2010 Скачать
4 | 0
Индийское кино [ 3.46 GB ] Банды Индостана / Thugs of Hindostan [2018 история BDRip-AVC] MVO [Honey&Haseena] - ExKinoRay Enigma2010 Скачать
1 | 0
Индийское кино [ 7.01 GB ] Банды Индостана / Thugs of Hindostan [2018 история BDRip 720p] MVO [Honey&Haseena] - ExKinoRay Enigma2010 Скачать
1 | 0
T Индийское кино [ 1.46 GB ] Банды Индостана / Thugs of Hindostan [2018 история BDRip] MVO [@MUZOBOZ@] - ExKinoRay Enigma2010 Скачать
7 | 0

28-11-2019 20:33  

Отключить всю рекламу на сайте

    Дорогой пользователь! Огромная просьба, поблагодарите релизера, оцените раздачу и оставьте свои комментарий, если Вы скачали Банды Индостана через торрент бесплатно!
    Комментировать посты могут только пользователи прошедшие не сложную регистрацию
    Показать сообщения:    

    Банды Индостана через торрент
    Скачать бесплатно Банды Индостана
    Банды Индостана скачать торрент
    Банды Индостана смотреть онлайн
    Cкачать фильм Банды Индостана бесплатно
    Банды Индостана скачать торрент в хорошем качестве
    Банды Индостана смотреть онлайн бесплатно в хорошем качестве


    Вы не можете начинать темы
    Вы не можете отвечать на сообщения
    Вы не можете редактировать свои сообщения
    Вы не можете удалять свои сообщения
    Вы не можете голосовать в опросах
    Вы не можете прикреплять файлы к сообщениям
    Вы можете скачивать файлы