Всегда рабочее зеркало без VPN и Proxy просто перед .vidak.icu напиши любое слово или цифру, Пример http://aphf.vidak.icu

MVO

Лицензия

1 сезон

1

1 сезон

iTunes

1 сезон

13

1 сезон

Deluxe

pack

Рекомендуем

Пиратка

30

ВАЖНО

RePack

MK11

RePack

jed

RePack

fifa19

RePack

RDR2

RePack

NEED FOR SPEED™ PAYBACK

Кинопоиск HD

6 сезон

 Острые козырьки 6 сезон

Все сериалы

все сериалы на PB.wtf

RePack

FAR CRY 5

Anonymous, нам критически не хватает 2100 руб. на оплату серверов и переферии за МАЙ, помоги нам пожалуйста, вся надежда только на тебя. В благодарность мы отключим тебе всю рекламу на сайте!

×
  
Magnet ссылка

Люди Икс 2 / X2 (Брайан Сингер) [2003, фантастика, боевик, триллер, UHD BDRip 2160p] DUB (rus, ukr) + MVO + DVO + 3xAVO freetor.icu

Люди Икс 2 через торрент freetor.icu

Размер: 29.78 GB | Добавлен: 3 года 9 мес. назад | Торрент скачан:7 раз
Смотреть онлайн Люди Икс 2 | Скачать    Ребята, помогите собрать деньги на оплату серверов!!!

23-09-2018 03:20 Люди Икс 2 Скачать торрент  

Люди Икс 2 / X2

Год выпуска: 2003
Страна: Канада, США
Жанр: фантастика, боевик, триллер, приключения
Продолжительность: 02:13:47
Перевод: Дублированный, профессиональный многоголосый, профессиональный двухголосый, авторский
Субтитры:русские (форсированные, полные), украинские (форсированные, полные), англиские (полные)
Режиссер: Брайан Сингер
В ролях:

Патрик Стюарт (Professor Charles Xavier), Хью Джекман (Logan / Wolverine), Иэн МакКеллен (Eric Lehnsherr / Magneto), Холли Берри (Ororo Munroe / Storm), Фамке Янссен (Jean Grey), Джеймс Марсден (Scott Summers / Cyclops), Анна Пэкуин (Rogue), Ребекка Ромейн (Raven Darkholme / Mystique / Grace), Брайан Кокс (William Stryker), Алан Камминг (Kurt Wagner / Nightcrawler), Брюс Дэвисон (Senator Kelly), Аарон Стэнфорд (John Allerdyce / Pyro)
Описание:
Мутанты продолжают борьбу против общества, которое страшит их, и которому они не доверяют. Их положение становится еще более отчаянным, когда они подвергаются мощной атаке неизвестного противника, обладающего экстраординарными способностями.
Рейтинг:

MPAA: PG-13 - Детям до 13 лет просмотр не желателен
Качество: UHD BDRip 2160p
Формат: MKV
Видео: HEVC, HDR, 22.7 Мбит/с, 3840x1600, 23.976 кадр/с
Аудио 01: RUS/ DTS / 5.1 / 48 kHz / 768 kbps - Дубляж
Аудио 02: RUS / AC3 / 5.1 / 48 kHz / 640 kbps - Многоголосый
Аудио 03: RUS / AC3 / 5.1 / 48 kHz / 640 kbps - П.Гланц и И.Королева
Аудио 04: RUS / AC3 / 5.1 / 48 kHz / 640 kbps - Гаврилов
Аудио 05: RUS / AC3 / 5.1 / 48 kHz / 640 kbps - Живов
Аудио 06: RUS / AC3 / 5.1 / 48 kHz / 640 kbps - Наследников
Аудио 07: UKR / AC3 / 5.1 / 48 kHz / 448 kbps - Дубляж
Аудио 08: ENG / DTS-HD MA / 5.1 / 48 kHz / 4075 kbps - Оригинал
Аудио 09: ENG / AC3 / 5.1 / 48 kHz / 640 kbps - Оригинал
Навигация по главам: есть
Общее
Уникальный идентификатор : 183626457074283855542060562951831240417 (0x8A252B5267005C97B1AB0042478B3EE1)
Полное имя : G:\X2.2003.2160p.BluRay.10bit.HEVC.HDR.4K.x265.Master5.mkv
Формат : Matroska
Версия формата : Version 4 / Version 2
Размер файла : 29,8 Гбайт
Продолжительность : 2 ч. 13 м.
Общий поток : 31,9 Мбит/сек
Название фильма : X2.2003.2160p.BluRay.10bit.HEVC.HDR.4K.x265.Master5
Дата кодирования : UTC 2018-09-22 21:50:22
Программа кодирования : mkvmerge v7.9.0 ('Birds') 64bit
Библиотека кодирования : libebml v1.3.1 + libmatroska v1.4.2
Обложка : Yes
Attachments : cover

Видео
Идентификатор : 1
Формат : HEVC
Формат/Информация : High Efficiency Video Coding
Коммерческое название : HDR10
Профиль формата : Main [email protected]@High
Идентификатор кодека : V_MPEGH/ISO/HEVC
Продолжительность : 2 ч. 13 м.
Битрейт : 22,7 Мбит/сек
Ширина : 3840 пикселей
Высота : 1600 пикселей
Соотношение сторон : 2,40:1
Режим частоты кадров : Постоянный
Частота кадров : 23,976 (24000/1001) кадра/сек
Цветовое пространство : YUV
Субдискретизация насыщенности : 4:2:0 (Type 2)
Битовая глубина : 10 бит
Бит/(Пиксели*Кадры) : 0.154
Размер потока : 21,2 Гбайт (71%)
Заголовок : X2.2003.2160p.BluRay.10bit.HEVC.HDR.4K.x265.Master5
Библиотека кодирования : x265 2.8+58-d17bc7714ed2:[Windows][GCC 8.2.0][64 bit] 10bit
Настройки программы : cpuid=1176575 / frame-threads=5 / numa-pools=32 / wpp / no-pmode / no-pme / no-psnr / no-ssim / log-level=2 / input-csp=1 / input-res=3840x1600 / interlace=0 / total-frames=192467 / level-idc=51 / high-tier=1 / uhd-bd=0 / ref=4 / no-allow-non-conformance / repeat-headers / annexb / aud / hrd / info / hash=0 / no-temporal-layers / no-open-gop / min-keyint=24 / keyint=240 / gop-lookahead=0 / bframes=4 / b-adapt=2 / b-pyramid / bframe-bias=0 / rc-lookahead=25 / lookahead-slices=4 / scenecut=40 / radl=0 / no-intra-refresh / ctu=64 / min-cu-size=8 / rect / no-amp / max-tu-size=32 / tu-inter-depth=1 / tu-intra-depth=1 / limit-tu=0 / rdoq-level=2 / dynamic-rd=0.00 / no-ssim-rd / signhide / no-tskip / nr-intra=0 / nr-inter=0 / no-constrained-intra / no-strong-intra-smoothing / max-merge=3 / limit-refs=3 / limit-modes / me=3 / subme=3 / merange=57 / temporal-mvp / weightp / no-weightb / no-analyze-src-pics / deblock=-3:-3 / no-sao / no-sao-non-deblock / rd=4 / no-early-skip / rskip / no-fast-intra / no-tskip-fast / no-cu-lossless / no-b-intra / no-splitrd-skip / rdpenalty=0 / psy-rd=2.00 / psy-rdoq=1.00 / no-rd-refine / no-lossless / cbqpoffs=0 / crqpoffs=0 / rc=crf / crf=17.0 / qcomp=0.60 / qpstep=4 / stats-write=0 / stats-read=0 / vbv-maxrate=160000 / vbv-bufsize=160000 / vbv-init=0.9 / crf-max=0.0 / crf-min=0.0 / ipratio=1.40 / pbratio=1.30 / aq-mode=1 / aq-strength=1.00 / cutree / zone-count=0 / no-strict-cbr / qg-size=32 / no-rc-grain / qpmax=69 / qpmin=0 / no-const-vbv / sar=1 / overscan=0 / videoformat=5 / range=0 / colorprim=9 / transfer=16 / colormatrix=9 / chromaloc=1 / chromaloc-top=2 / chromaloc-bottom=2 / display-window=0 / master-display=G(13250,34500)B(7500,3000)R(34000,16000)WP(15635,16450)L(10000000,50) / max-cll=0,0 / min-luma=0 / max-luma=1023 / log2-max-poc-lsb=8 / vui-timing-info / vui-hrd-info / slices=1 / no-opt-qp-pps / no-opt-ref-list-length-pps / no-multi-pass-opt-rps / scenecut-bias=0.05 / no-opt-cu-delta-qp / no-aq-motion / hdr / hdr-opt / no-dhdr10-opt / no-idr-recovery-sei / analysis-reuse-level=5 / scale-factor=0 / refine-intra=0 / refine-inter=0 / refine-mv=0 / no-limit-sao / ctu-info=0 / no-lowpass-dct / refine-mv-type=0 / copy-pic=1 / max-ausize-factor=1.0 / no-dynamic-refine / no-single-sei
Default : Да
Forced : Нет
Цветовой диапазон : Limited
Основные цвета : BT.2020
Характеристики трансфера : PQ
Коэффициенты матрицы : BT.2020 non-constant
MasteringDisplay_ColorPrimaries : Display P3
MasteringDisplay_Luminance : min: 0.0050 cd/m2, max: 1000 cd/m2

Аудио #1
Идентификатор : 2
Формат : DTS
Формат/Информация : Digital Theater Systems
Идентификатор кодека : A_DTS
Продолжительность : 2 ч. 13 м.
Вид битрейта : Постоянный
Битрейт : 768 Кбит/сек
Каналы : 6 каналов
Расположение каналов : Front: L C R, Side: L R, LFE
Частота : 48,0 КГц
Частота кадров : 93,750 кадра/сек (512 SPF)
Битовая глубина : 24 бит
Метод сжатия : С потерями
Размер потока : 735 Мбайт (2%)
Заголовок : дублированный
Язык : Russian
Default : Да
Forced : Нет

Аудио #2
Идентификатор : 3
Формат : AC-3
Формат/Информация : Audio Coding 3
Идентификатор кодека : A_AC3
Продолжительность : 2 ч. 13 м.
Вид битрейта : Постоянный
Битрейт : 640 Кбит/сек
Каналы : 6 каналов
Расположение каналов : Front: L C R, Side: L R, LFE
Частота : 48,0 КГц
Частота кадров : 31,250 кадров/сек (1536 SPF)
Битовая глубина : 16 бит
Метод сжатия : С потерями
Размер потока : 612 Мбайт (2%)
Заголовок : Многоголосый закадровый
Язык : Russian
ServiceKind/String : Complete Main
Default : Нет
Forced : Нет

Аудио #3
Идентификатор : 4
Формат : AC-3
Формат/Информация : Audio Coding 3
Идентификатор кодека : A_AC3
Продолжительность : 2 ч. 13 м.
Вид битрейта : Постоянный
Битрейт : 640 Кбит/сек
Каналы : 6 каналов
Расположение каналов : Front: L C R, Side: L R, LFE
Частота : 48,0 КГц
Частота кадров : 31,250 кадров/сек (1536 SPF)
Битовая глубина : 16 бит
Метод сжатия : С потерями
Размер потока : 612 Мбайт (2%)
Заголовок : П.Гланц и И.Королева
Язык : Russian
ServiceKind/String : Complete Main
Default : Нет
Forced : Нет

Аудио #4
Идентификатор : 5
Формат : AC-3
Формат/Информация : Audio Coding 3
Идентификатор кодека : A_AC3
Продолжительность : 2 ч. 13 м.
Вид битрейта : Постоянный
Битрейт : 640 Кбит/сек
Каналы : 6 каналов
Расположение каналов : Front: L C R, Side: L R, LFE
Частота : 48,0 КГц
Частота кадров : 31,250 кадров/сек (1536 SPF)
Битовая глубина : 16 бит
Метод сжатия : С потерями
Размер потока : 612 Мбайт (2%)
Заголовок : А.Гаврилов
Язык : Russian
ServiceKind/String : Complete Main
Default : Нет
Forced : Нет

Аудио #5
Идентификатор : 6
Формат : AC-3
Формат/Информация : Audio Coding 3
Идентификатор кодека : A_AC3
Продолжительность : 2 ч. 13 м.
Вид битрейта : Постоянный
Битрейт : 640 Кбит/сек
Каналы : 6 каналов
Расположение каналов : Front: L C R, Side: L R, LFE
Частота : 48,0 КГц
Частота кадров : 31,250 кадров/сек (1536 SPF)
Битовая глубина : 16 бит
Метод сжатия : С потерями
Размер потока : 612 Мбайт (2%)
Заголовок : Ю.Живов
Язык : Russian
ServiceKind/String : Complete Main
Default : Нет
Forced : Нет

Аудио #6
Идентификатор : 7
Формат : AC-3
Формат/Информация : Audio Coding 3
Идентификатор кодека : A_AC3
Продолжительность : 2 ч. 13 м.
Вид битрейта : Постоянный
Битрейт : 640 Кбит/сек
Каналы : 6 каналов
Расположение каналов : Front: L C R, Side: L R, LFE
Частота : 48,0 КГц
Частота кадров : 31,250 кадров/сек (1536 SPF)
Битовая глубина : 16 бит
Метод сжатия : С потерями
Размер потока : 612 Мбайт (2%)
Заголовок : А.Наследников
Язык : Russian
ServiceKind/String : Complete Main
Default : Нет
Forced : Нет

Аудио #7
Идентификатор : 8
Формат : AC-3
Формат/Информация : Audio Coding 3
Идентификатор кодека : A_AC3
Продолжительность : 2 ч. 13 м.
Вид битрейта : Постоянный
Битрейт : 448 Кбит/сек
Каналы : 6 каналов
Расположение каналов : Front: L C R, Side: L R, LFE
Частота : 48,0 КГц
Частота кадров : 31,250 кадров/сек (1536 SPF)
Битовая глубина : 16 бит
Метод сжатия : С потерями
Размер потока : 429 Мбайт (1%)
Заголовок : дублированный
Язык : Ukrainian
ServiceKind/String : Complete Main
Default : Нет
Forced : Нет

Аудио #8
Идентификатор : 9
Формат : DTS
Формат/Информация : Digital Theater Systems
Профиль формата : MA / Core
Идентификатор кодека : A_DTS
Продолжительность : 2 ч. 13 м.
Вид битрейта : Переменный / Постоянный
Битрейт : 4075 Кбит/сек / 1509 Кбит/сек
Каналы : 6 каналов
Расположение каналов : Front: L C R, Side: L R, LFE
Частота : 48,0 КГц
Частота кадров : 93,750 кадра/сек (512 SPF)
Битовая глубина : 24 бит
Метод сжатия : Без потерь / Lossy
Размер потока : 3,81 Гбайт (13%)
Заголовок : DTS-HD MA 5.1 Оригинал
Язык : English
Default : Нет
Forced : Нет

Аудио #9
Идентификатор : 10
Формат : AC-3
Формат/Информация : Audio Coding 3
Идентификатор кодека : A_AC3
Продолжительность : 2 ч. 13 м.
Вид битрейта : Постоянный
Битрейт : 640 Кбит/сек
Каналы : 6 каналов
Расположение каналов : Front: L C R, Side: L R, LFE
Частота : 48,0 КГц
Частота кадров : 31,250 кадров/сек (1536 SPF)
Битовая глубина : 16 бит
Метод сжатия : С потерями
Размер потока : 612 Мбайт (2%)
Заголовок : Оригинал
Язык : English
ServiceKind/String : Complete Main
Default : Нет
Forced : Нет

Текст #1
Идентификатор : 11
Формат : UTF-8
Идентификатор кодека : S_TEXT/UTF8
Идентификатор кодека/Информация : UTF-8 Plain Text
Продолжительность : 1 ч. 49 м.
Битрейт : 0 бит/сек
ElementCount : 14
Размер потока : 642 байт (0%)
Заголовок : Forced
Язык : Russian
Default : Да
Forced : Нет

Текст #2
Идентификатор : 12
Формат : UTF-8
Идентификатор кодека : S_TEXT/UTF8
Идентификатор кодека/Информация : UTF-8 Plain Text
Продолжительность : 2 ч. 4 м.
Битрейт : 56 бит/сек
ElementCount : 914
Размер потока : 51,5 Кбайт (0%)
Заголовок : Full
Язык : Russian
Default : Нет
Forced : Нет

Текст #3
Идентификатор : 13
Формат : UTF-8
Идентификатор кодека : S_TEXT/UTF8
Идентификатор кодека/Информация : UTF-8 Plain Text
Продолжительность : 1 ч. 49 м.
Битрейт : 0 бит/сек
ElementCount : 14
Размер потока : 622 байт (0%)
Заголовок : Forced
Язык : Ukrainian
Default : Нет
Forced : Нет

Текст #4
Идентификатор : 14
Формат : UTF-8
Идентификатор кодека : S_TEXT/UTF8
Идентификатор кодека/Информация : UTF-8 Plain Text
Продолжительность : 2 ч. 4 м.
Битрейт : 55 бит/сек
ElementCount : 867
Размер потока : 50,4 Кбайт (0%)
Заголовок : Full
Язык : Ukrainian
Default : Нет
Forced : Нет

Текст #5
Идентификатор : 15
Формат : UTF-8
Идентификатор кодека : S_TEXT/UTF8
Идентификатор кодека/Информация : UTF-8 Plain Text
Продолжительность : 2 ч. 4 м.
Битрейт : 44 бит/сек
ElementCount : 1282
Размер потока : 40,9 Кбайт (0%)
Заголовок : Full
Язык : English
Default : Нет
Forced : Нет

Меню
00:00:00.000 : :00:00:00.000
00:01:50.527 : :00:01:50.527
00:05:21.947 : :00:05:21.947
00:07:12.265 : :00:07:12.265
00:12:27.121 : :00:12:27.121
00:15:34.225 : :00:15:34.225
00:17:57.326 : :00:17:57.326
00:19:25.706 : :00:19:25.706
00:22:47.616 : :00:22:47.616
00:26:09.693 : :00:26:09.693
00:29:15.963 : :00:29:15.963
00:31:10.285 : :00:31:10.285
00:33:41.686 : :00:33:41.686
00:35:09.524 : :00:35:09.524
00:39:50.179 : :00:39:50.179
00:45:35.733 : :00:45:35.733
00:47:18.335 : :00:47:18.335
00:50:24.104 : :00:50:24.104
00:53:17.986 : :00:53:17.986
00:55:40.420 : :00:55:40.420
00:57:14.931 : :00:57:14.931
00:59:21.808 : :00:59:21.808
01:04:55.892 : :01:04:55.892
01:09:23.701 : :01:09:23.701
01:14:48.734 : :01:14:48.734
01:18:18.485 : :01:18:18.485
01:24:52.546 : :01:24:52.546
01:27:16.440 : :01:27:16.440
01:30:32.385 : :01:30:32.385
01:32:33.923 : :01:32:33.923
01:36:44.090 : :01:36:44.090
01:41:16.070 : :01:41:16.070
01:43:31.163 : :01:43:31.163
01:46:38.058 : :01:46:38.058
01:48:38.637 : :01:48:38.637
01:53:41.940 : :01:53:41.940
01:58:18.883 : :01:58:18.883
02:02:14.661 : :02:02:14.661
02:04:38.471 : :02:04:38.471
02:05:11.170 : :02:05:11.170
freetor.icu



Скачать Люди Икс 2 через торрент https://c.radikal.ru/c00/1809/4f/60cff778db23.png Скачать, смотреть онлайн Люди Икс 2 бесплантно в хорошем качестве Описание: Мутанты продолжают борьбу против общества, которое страшит их, и которому они не доверяют. Их положение становится еще более ... 10 10 3
Info! Золотая раздача, скачанное не засчитывается.
Торрент: Зарегистрирован [2018-09-23 03:20] · скачан: 7 раз
Статус: √ проверено
Размер: 29.78 GB
Как cкачать? Как скачать Люди Икс 2 через торрент | UTorrent

% Раздел Тема Автор DL S | L
Ultra HD (UHD: 2K, 4K, 8K) — видео сверхвысокой чёткости [ 70.38 GB ] Люди Икс 2 / X2 [2003 UHD Remux 2160p] DUB +MVO+DVO+2xAVO bober100 Скачать
1 | 0

28-11-2019 20:33  

Отключить всю рекламу на сайте

    Дорогой пользователь! Огромная просьба, поблагодарите релизера, оцените раздачу и оставьте свои комментарий, если Вы скачали Люди Икс 2 через торрент бесплатно!
    Комментировать посты могут только пользователи прошедшие не сложную регистрацию
    Показать сообщения:    

    Люди Икс 2 через торрент
    Скачать бесплатно Люди Икс 2
    Люди Икс 2 скачать торрент
    Люди Икс 2 смотреть онлайн
    Cкачать фильм Люди Икс 2 бесплатно
    Люди Икс 2 скачать торрент в хорошем качестве
    Люди Икс 2 смотреть онлайн бесплатно в хорошем качестве


    Вы не можете начинать темы
    Вы не можете отвечать на сообщения
    Вы не можете редактировать свои сообщения
    Вы не можете удалять свои сообщения
    Вы не можете голосовать в опросах
    Вы не можете прикреплять файлы к сообщениям
    Вы можете скачивать файлы