Всегда рабочее зеркало без VPN и Proxy просто перед .vidak.icu напиши любое слово или цифру, Пример http://0x1k.vidak.icu

MVO

Лицензия

1 сезон

1

1 сезон

iTunes

1 сезон

13

1 сезон

Deluxe

pack

Рекомендуем

Пиратка

30

ВАЖНО

RePack

MK11

RePack

jed

RePack

fifa19

RePack

RDR2

RePack

NEED FOR SPEED™ PAYBACK

Кинопоиск HD

6 сезон

 Острые козырьки 6 сезон

Все сериалы

все сериалы на PB.wtf

RePack

FAR CRY 5

Anonymous, нам критически не хватает 2100 руб. на оплату серверов и переферии за МАЙ, помоги нам пожалуйста, вся надежда только на тебя. В благодарность мы отключим тебе всю рекламу на сайте!

×
  
Magnet ссылка

Робин Гуд / Robin Hood (Ридли Скотт) [2010, боевик, драма, приключения, UHD BDRip 2160p] DUB [Театральная версия] freetor.icu

Робин Гуд через торрент freetor.icu

Размер: 40.01 GB | Добавлен: 3 года 9 мес. назад | Торрент скачан:18 раз
Смотреть онлайн Робин Гуд | Скачать    Ребята, помогите собрать деньги на оплату серверов!!!

13-09-2018 17:20 Робин Гуд Скачать торрент  

Робин Гуд / Robin Hood«О нём слагали легенды»
Год выпуска: 2010
Страна: США, Великобритания
Жанр: боевик, драма, приключения
Продолжительность: 02:20:20
Перевод: Дублированный
Субтитры: Русские, английские
Режиссер: Ридли Скотт
В ролях:

Рассел Кроу (Robin Longstride), Кейт Бланшетт (Marion Loxley), Макс фон Сюдов (Sir Walter Loxley), Уильям Хёрт (William Marshal), Марк Стронг (Godfrey), Оскар Айзек (Prince John), Кевин Дюран (Little John), Айлин Аткинс (Eleanor of Aquitaine), Марк Эдди (Friar Tuck), Мэттью Макфэдиен (Sheriff of Nottingham), Дэнни Хьюстон (King Richard the Lionheart), Скотт Граймз (Will Scarlet)
Описание:
История лучника армии Ричарда Львиное Сердце, который борется против нормандских захватчиков и становится легендарным героем, известным под именем Робин Гуд.
Рейтинг:

MPAA: PG-13 - Детям до 13 лет просмотр не желателен
Качество: UHD BDRip2160p
Формат: MKV
Видео: HEVC, HDR, 31900 Кбит/с, 3840x1600, 23.976 кадр/с
Аудио 1: AC-3, 48.0 KHz, 6 ch, 640 Kbps, CBR (Русский) - Дублированный (Blu-ray CEE)
Аудио 2: AC-3, 48.0 KHz, 2 ch, 192 Kbps, CBR (Украинский) - Профессиональный многоголосый
Аудио 3: DTS: X / DTS-HD Master, 48.0 KHz, 8 ch, 7453 Kbps, CBR (Английский) - оригинальная
Аудио 4: AC-3, 48.0 KHz, 6 ch, 640 Kbps, CBR (Английский) - оригинальная
Навигация по главам: есть
Общее
Уникальный идентификатор : 241198321513140726898204590030535028735 (0xB5751B63F241DC04B94F116A39286FFF)
Полное имя : G:\Robin.Hood.2010.Theatrical Cut.2160p.UHD.BDRip.10bit.HEVC.HDR.4K.x265.Master5.mkv
Формат : Matroska
Версия формата : Version 4 / Version 2
Размер файла : 40,0 Гбайт
Продолжительность : 2 ч. 20 м.
Общий поток : 40,8 Мбит/сек
Название фильма : Robin.Hood.2010.Theatrical Cut.2160p.UHD.BDRip.10bit.HEVC.HDR.4K.x265.Master5
Дата кодирования : UTC 2018-09-13 14:57:22
Программа кодирования : mkvmerge v7.9.0 ('Birds') 64bit
Библиотека кодирования : libebml v1.3.1 + libmatroska v1.4.2

Видео
Идентификатор : 1
Формат : HEVC
Формат/Информация : High Efficiency Video Coding
Коммерческое название : HDR10
Профиль формата : Main [email protected]@High
Идентификатор кодека : V_MPEGH/ISO/HEVC
Продолжительность : 2 ч. 20 м.
Битрейт : 31,9 Мбит/сек
Ширина : 3840 пикселей
Высота : 1600 пикселей
Соотношение сторон : 2,40:1
Режим частоты кадров : Постоянный
Частота кадров : 23,976 (24000/1001) кадра/сек
Цветовое пространство : YUV
Субдискретизация насыщенности : 4:2:0 (Type 2)
Битовая глубина : 10 бит
Бит/(Пиксели*Кадры) : 0.216
Размер потока : 31,3 Гбайт (78%)
Заголовок : Robin.Hood.2010.Theatrical Cut.2160p.UHD.BDRip.10bit.HEVC.HDR.4K.x265.Master5
Библиотека кодирования : x265 2.8+10-703eade86b53:[Windows][MSVC 1914][64 bit] 10bit
Настройки программы : cpuid=1111039 / frame-threads=5 / numa-pools=36 / wpp / no-pmode / no-pme / no-psnr / no-ssim / log-level=2 / input-csp=1 / input-res=3840x1600 / interlace=0 / total-frames=201888 / level-idc=51 / high-tier=1 / uhd-bd=0 / ref=4 / no-allow-non-conformance / repeat-headers / annexb / aud / hrd / info / hash=0 / no-temporal-layers / no-open-gop / min-keyint=1 / keyint=24 / gop-lookahead=0 / bframes=4 / b-adapt=2 / b-pyramid / bframe-bias=0 / rc-lookahead=25 / lookahead-slices=4 / scenecut=40 / radl=0 / no-intra-refresh / ctu=64 / min-cu-size=8 / rect / no-amp / max-tu-size=32 / tu-inter-depth=1 / tu-intra-depth=1 / limit-tu=0 / rdoq-level=2 / dynamic-rd=0.00 / no-ssim-rd / signhide / no-tskip / nr-intra=0 / nr-inter=0 / no-constrained-intra / no-strong-intra-smoothing / max-merge=3 / limit-refs=3 / limit-modes / me=3 / subme=3 / merange=57 / temporal-mvp / weightp / no-weightb / no-analyze-src-pics / deblock=-3:-3 / no-sao / no-sao-non-deblock / rd=4 / no-early-skip / rskip / no-fast-intra / no-tskip-fast / no-cu-lossless / no-b-intra / no-splitrd-skip / rdpenalty=0 / psy-rd=2.00 / psy-rdoq=1.00 / no-rd-refine / no-lossless / cbqpoffs=0 / crqpoffs=0 / rc=crf / crf=19.5 / qcomp=0.60 / qpstep=4 / stats-write=0 / stats-read=0 / vbv-maxrate=160000 / vbv-bufsize=160000 / vbv-init=0.9 / crf-max=0.0 / crf-min=0.0 / ipratio=1.40 / pbratio=1.30 / aq-mode=1 / aq-strength=1.00 / cutree / zone-count=0 / no-strict-cbr / qg-size=32 / no-rc-grain / qpmax=69 / qpmin=0 / no-const-vbv / sar=1 / overscan=0 / videoformat=5 / range=0 / colorprim=9 / transfer=16 / colormatrix=9 / chromaloc=1 / chromaloc-top=2 / chromaloc-bottom=2 / display-window=0 / master-display=G(13250,34500)B(7500,3000)R(34000,16000)WP(15635,16450)L(10000000,50) / max-cll=1001,328 / min-luma=0 / max-luma=1023 / log2-max-poc-lsb=8 / vui-timing-info / vui-hrd-info / slices=1 / no-opt-qp-pps / no-opt-ref-list-length-pps / no-multi-pass-opt-rps / scenecut-bias=0.05 / no-opt-cu-delta-qp / no-aq-motion / hdr / hdr-opt / no-dhdr10-opt / no-idr-recovery-sei / analysis-reuse-level=5 / scale-factor=0 / refine-intra=0 / refine-inter=0 / refine-mv=0 / no-limit-sao / ctu-info=0 / no-lowpass-dct / refine-mv-type=0 / copy-pic=1 / max-ausize-factor=1.0 / no-dynamic-refine / no-single-sei
Default : Да
Forced : Нет
Цветовой диапазон : Limited
Основные цвета : BT.2020
Характеристики трансфера : PQ
Коэффициенты матрицы : BT.2020 non-constant
MasteringDisplay_ColorPrimaries : Display P3
MasteringDisplay_Luminance : min: 0.0050 cd/m2, max: 1000 cd/m2
MaxCLL : 1001 cd/m2
MaxFALL : 328 cd/m2

Аудио #1
Идентификатор : 2
Формат : AC-3
Формат/Информация : Audio Coding 3
Идентификатор кодека : A_AC3
Продолжительность : 2 ч. 20 м.
Вид битрейта : Постоянный
Битрейт : 640 Кбит/сек
Каналы : 6 каналов
Расположение каналов : Front: L C R, Side: L R, LFE
Частота : 48,0 КГц
Частота кадров : 31,250 кадров/сек (1536 SPF)
Битовая глубина : 16 бит
Метод сжатия : С потерями
Размер потока : 642 Мбайт (2%)
Заголовок : Дублированный (Blu-ray CEE)
Язык : Russian
ServiceKind/String : Complete Main
Default : Да
Forced : Нет

Аудио #2
Идентификатор : 3
Формат : AC-3
Формат/Информация : Audio Coding 3
Идентификатор кодека : A_AC3
Продолжительность : 2 ч. 20 м.
Вид битрейта : Постоянный
Битрейт : 192 Кбит/сек
Каналы : 2 канала
Расположение каналов : Front: L R
Частота : 48,0 КГц
Частота кадров : 31,250 кадров/сек (1536 SPF)
Битовая глубина : 16 бит
Метод сжатия : С потерями
Размер потока : 193 Мбайт (0%)
Заголовок : Профессиональный многоголосый
Язык : Ukrainian
ServiceKind/String : Complete Main
Default : Нет
Forced : Нет

Аудио #3
Идентификатор : 4
Формат : DTS
Формат/Информация : Digital Theater Systems
Профиль формата : X / MA / Core
Идентификатор кодека : A_DTS
Продолжительность : 2 ч. 20 м.
Вид битрейта : Переменный / Переменный / Постоянный
Битрейт : 7453 Кбит/сек / 7453 Кбит/сек / 1509 Кбит/сек
Каналы : Object Based / 8 каналов / 6 каналов
Расположение каналов : Object Based / Front: L C R, Side: L R, Back: L R, LFE / Front: L C R, Side: L R, LFE
Частота : / 48,0 КГц / 48,0 КГц
Частота кадров : 93,750 кадра/сек (512 SPF)
Битовая глубина : / 24 бит / 24 бит
Метод сжатия : / Lossless / Lossy
Размер потока : 7,31 Гбайт (18%)
Язык : English
Default : Нет
Forced : Нет

Аудио #4
Идентификатор : 5
Формат : AC-3
Формат/Информация : Audio Coding 3
Идентификатор кодека : A_AC3
Продолжительность : 2 ч. 20 м.
Вид битрейта : Постоянный
Битрейт : 640 Кбит/сек
Каналы : 6 каналов
Расположение каналов : Front: L C R, Side: L R, LFE
Частота : 48,0 КГц
Частота кадров : 31,250 кадров/сек (1536 SPF)
Битовая глубина : 16 бит
Метод сжатия : С потерями
Размер потока : 642 Мбайт (2%)
Заголовок : Original
Язык : English
ServiceKind/String : Complete Main
Default : Нет
Forced : Нет

Текст #1
Идентификатор : 6
Формат : UTF-8
Идентификатор кодека : S_TEXT/UTF8
Идентификатор кодека/Информация : UTF-8 Plain Text
Продолжительность : 2 ч. 13 м.
Битрейт : 2 бит/сек
ElementCount : 95
Размер потока : 2,80 Кбайт (0%)
Заголовок : (Forced)
Язык : Russian
Default : Да
Forced : Нет

Текст #2
Идентификатор : 7
Формат : UTF-8
Идентификатор кодека : S_TEXT/UTF8
Идентификатор кодека/Информация : UTF-8 Plain Text
Продолжительность : 2 ч. 12 м.
Битрейт : 43 бит/сек
ElementCount : 1386
Размер потока : 42,0 Кбайт (0%)
Язык : English
Default : Нет
Forced : Нет

Меню
00:00:00.000 : en:00:00:00.000
00:11:30.273 : en:00:11:30.273
00:17:51.737 : en:00:17:51.737
00:22:14.083 : en:00:22:14.083
00:30:29.786 : en:00:30:29.786
00:35:20.827 : en:00:35:20.827
00:44:32.378 : en:00:44:32.378
00:51:09.858 : en:00:51:09.858
00:58:44.187 : en:00:58:44.187
01:04:26.863 : en:01:04:26.863
01:14:00.769 : en:01:14:00.769
01:22:53.301 : en:01:22:53.301
01:28:44.819 : en:01:28:44.819
01:35:04.699 : en:01:35:04.699
01:41:46.225 : en:01:41:46.225
01:48:05.520 : en:01:48:05.520
01:53:59.833 : en:01:53:59.833
02:03:00.581 : en:02:03:00.581
02:07:20.424 : en:02:07:20.424
02:11:40.350 : en:02:11:40.350
freetor.icu



Скачать Робин Гуд через торрент https://b.radikal.ru/b02/1809/8c/954a138f8816.jpg Скачать, смотреть онлайн Робин Гуд бесплантно в хорошем качестве Описание: История лучника армии Ричарда Львиное Сердце, который борется против нормандских захватчиков и становится легендарным героем, ... 10 10 4
Info! Золотая раздача, скачанное не засчитывается.
Торрент: Зарегистрирован [2018-09-13 17:20] · скачан: 18 раз
Статус: √ проверено
Размер: 40.01 GB
Как cкачать? Как скачать Робин Гуд через торрент | UTorrent

% Раздел Тема Автор DL S | L
Фильмы [HD 720p, 1080p] (Хороший звук DUB, MVO) [ 15.31 GB ] Робин Гуд: Принц воров / Robin Hood: Prince of Thieves [1991 BDRip-HEVC 1080p] 2xDUB + 3xMVO + 6хAVO + 2хVO | Extended Version RealOldGamer Скачать
1 | 0
Фильмы 2018 [DVDrip, WEB-DLRip, HDrip] (DUB, MVO) [ 1.46 GB ] Робин Гуд: Начало / Robin Hood [2018 WEB-DLRip] [Локализованный видеоряд] killermax2013 Скачать
1 | 0
Фильмы (HD 720p, 1080p) (48-60 fps) [ 26.48 GB ] Робин Гуд: Начало / Robin Hood [2018 BDRip 1080p 60 fps] sheker187 Скачать
1 | 0
T Фильмы с украинским озвучиванием [ 3.58 GB ] Робин Гуд: Начало / Robin Hood [2018 WEBRip 1080p] [Ukr DUB] killermax2013 Скачать
1 | 0
Ultra HD (UHD: 2K, 4K, 8K) — видео сверхвысокой чёткости [ 85.87 GB ] Робин Гуд: Начало / Robin Hood [2018 UHD Blu-ray 2160p] [Dolby Vision] sheker187 Скачать
1 | 0
Фильмы 2018 [DVDrip, WEB-DLRip, HDrip] (DUB, MVO) [ 2.13 GB ] Робин Гуд: Начало / Robin Hood [2018 BDRip] - Twi7ter Скачать
2 | 0
Фильмы [HD 720p, 1080p] (Хороший звук DUB, MVO) [ 9.5 GB ] Робин Гуд: Начало / Robin Hood [2018 BDRip 1080p] MVO [HDrezka Studio] + bober100 Скачать
1 | 0

28-11-2019 20:33  

Отключить всю рекламу на сайте

    Дорогой пользователь! Огромная просьба, поблагодарите релизера, оцените раздачу и оставьте свои комментарий, если Вы скачали Робин Гуд через торрент бесплатно!
    Комментировать посты могут только пользователи прошедшие не сложную регистрацию
    Показать сообщения:    

    Робин Гуд через торрент
    Скачать бесплатно Робин Гуд
    Робин Гуд скачать торрент
    Робин Гуд смотреть онлайн
    Cкачать фильм Робин Гуд бесплатно
    Робин Гуд скачать торрент в хорошем качестве
    Робин Гуд смотреть онлайн бесплатно в хорошем качестве


    Вы не можете начинать темы
    Вы не можете отвечать на сообщения
    Вы не можете редактировать свои сообщения
    Вы не можете удалять свои сообщения
    Вы не можете голосовать в опросах
    Вы не можете прикреплять файлы к сообщениям
    Вы можете скачивать файлы