>

5.6

iTunes

6.1

MVO

5.7

MVO

1

7.4

1 сезон

6.8

iTunes

7.2

1 сезон

13

6.7

1 сезон

8.3

RePack

30

Deluxe

pack

9.9

Лицензия

ВАЖНО

ИГРА 18+

pack

7.3

RePack

MK11

7.7

RePack

jed

7.8

RePack

fifa19

8.5

RePack

RDR2

RePack

NEED FOR SPEED™ PAYBACK

4 сезон

9 сезон

Бесстыжие 9 сезон

Все сериалы

все сериалы на PB.wtf

RePack

FAR CRY 5

Anonymous, добрый день, мы катастрофически не успеваем собрать деньги на оплату серверов, помогите нам пожалуйста 5,10,15р., для нас важна любая помощь . В качестве благодарности мы отключим Вам всю рекламу на сайте (укажите свой ник в строку Ваше имя)!

×
  
Magnet ссылка

Ты, только ты / Tutak Tutak Tutiya (Виджай / Vijay) [2016, ужасы, комедия, DVB] [MVO] (Astana TV) freetor.icu

Ты, только ты через торрент freetor.icu

Размер: 1.78 GB | Добавлен: 3 года назад | Торрент скачан:22 раза
Смотреть онлайн Ты, только ты | Скачать    Ребята, помогите собрать деньги на оплату серверов!!!

02-09-2018 06:30 Ты, только ты Скачать торрент  

Ты, только ты / Tutak Tutak Tutiya Год выпуска: 2016
Страна: Индия
Жанр: ужасы, комедия
Продолжительность: 01:57:24
Перевод: Профессиональный (многоголосый закадровый) (Astana TV)
Субтитры: отсутствуют

Режиссёр: Виджай: Vijay

В ролях: Таманна Бхатия, Каришма Гулати, Эша Гупта, Фара Кхан, Рави Ханна, Прабхудева, Мурли Шарма, Сону Суд, Раджив Такур.

О фильме: Городской парень Кришна, мечтавший жениться на современной девушке модельной внешности, по воле умирающей бабушки создает семью с деревенской девушкой по имени Деви. Постеснявшись показывать ее своим друзьям, он решает поселить ее подальше от города. Вот только дом, который он снимает, оказывается не совсем обычным. В нем живет дух девушки, которая покончила с собой, потому что не смогла стать звездой кино. И теперь этому духу приглянулось тело Деви и он задумал вновь попытаться покорить мир кино, вселившись в жену Кришны...


Семпл: https://www.sendspace.com/file/caf0bk

Качество: DVB [Astana TV] (эфир 01.09.2018)
Формат: TS
Видео: AVC, 720x576 @ 1047x576 (16:9), 25 fps, ~1865 kbps, 0.180 bit/pixel
Аудио: [RUS] 48 kHz, MP2, 2 ch [dualmono], 192 kbps
General
ID : 1 (0x1)
Complete name : H:\Раздачи\Ты, только ты (2016) [Astana TV].ts
Format : MPEG-TS
File size : 1.78 GiB
Duration : 1 h 57 min
Overall bit rate mode : Variable
Overall bit rate : 2 166 kb/s

Video
ID : 67 (0x43)
Menu ID : 1 (0x1)
Format : AVC
Format/Info : Advanced Video Codec
Format profile : High@L3
Format settings : CABAC / 3 Ref Frames
Format settings, CABAC : Yes
Format settings, ReFrames : 3 frames
Codec ID : 27
Duration : 1 h 57 min
Bit rate : 1 865 kb/s
Width : 720 pixels
Height : 576 pixels
Display aspect ratio : 16:9
Frame rate : 25.000 FPS
Standard : Component
Color space : YUV
Chroma subsampling : 4:2:0
Bit depth : 8 bits
Scan type : Interlaced
Scan type, store method : Separated fields
Scan order : Top Field First
Bits/(Pixel*Frame) : 0.180
Stream size : 1.53 GiB (86%)
Color range : Limited
Color primaries : BT.601 PAL
Transfer characteristics : BT.470 System B/G
Matrix coefficients : BT.470 System B/G

Audio
ID : 68 (0x44)
Menu ID : 1 (0x1)
Format : MPEG Audio
Format version : Version 1
Format profile : Layer 2
Codec ID : 3
Duration : 1 h 57 min
Bit rate mode : Constant
Bit rate : 192 kb/s
Channel(s) : 2 channels
Sampling rate : 48.0 kHz
Frame rate : 41.667 FPS (1152 SPF)
Compression mode : Lossy
Delay relative to video : -80 ms
Stream size : 161 MiB (9%)
Language : English
скриншот  скриншот  скриншот  
freetor.icu



Скачать Ты, только ты через торрент http://i103.fastpic.ru/big/2018/0902/32/225dd26ce4aa0e32fa1c0b450b241e32.jpg Скачать, смотреть онлайн Ты, только ты бесплантно в хорошем качестве О фильме: Городской парень Кришна, мечтавший жениться на современной девушке модельной внешности, по воле умирающей бабушки создает семью с ... 9.8 10 5
Торрент: Зарегистрирован [2018-09-02 06:30] · скачан: 22 раз
Статус: √ проверено
Размер: 1.78 GB
Как cкачать? Как скачать Ты, только ты через торрент | UTorrent

28-11-2019 20:33  

Отключить всю рекламу на сайте

    Дорогой пользователь! Огромная просьба, поблагодарите релизера, оцените раздачу и оставьте свои комментарий, если Вы скачали Ты, только ты через торрент бесплатно!
    Комментировать посты могут только пользователи прошедшие не сложную регистрацию
    Показать сообщения:    

    Ты, только ты через торрент
    Скачать бесплатно Ты, только ты
    Ты, только ты скачать торрент
    Ты, только ты смотреть онлайн
    Cкачать фильм Ты, только ты бесплатно
    Ты, только ты скачать торрент в хорошем качестве
    Ты, только ты смотреть онлайн бесплатно в хорошем качестве


    Вы не можете начинать темы
    Вы не можете отвечать на сообщения
    Вы не можете редактировать свои сообщения
    Вы не можете удалять свои сообщения
    Вы не можете голосовать в опросах
    Вы не можете прикреплять файлы к сообщениям
    Вы можете скачивать файлы