Всегда рабочее зеркало без VPN и Proxy просто перед .vidak.icu напиши любое слово или цифру, Пример http://08by.vidak.icu

MVO

Лицензия

1 сезон

1

1 сезон

iTunes

1 сезон

13

1 сезон

Deluxe

pack

Рекомендуем

Пиратка

30

ВАЖНО

RePack

MK11

RePack

jed

RePack

fifa19

RePack

RDR2

RePack

NEED FOR SPEED™ PAYBACK

Кинопоиск HD

6 сезон

 Острые козырьки 6 сезон

Все сериалы

все сериалы на PB.wtf

RePack

FAR CRY 5

Anonymous, нам критически не хватает 2100 руб. на оплату серверов и переферии за МАЙ, помоги нам пожалуйста, вся надежда только на тебя. В благодарность мы отключим тебе всю рекламу на сайте!

×
  
Magnet ссылка

Мстители / The Avengers (Джосс Уидон) [2012, фантастика, фэнтези, боевик, UHD BDRip 2160p] DUB (rus, ukr) + AVO [Ю. Cербин] freetor.icu

Мстители через торрент freetor.icu

Размер: 23.42 GB | Добавлен: 3 года 10 мес. назад | Торрент скачан:91 раз
Смотреть онлайн Мстители | Скачать    Ребята, помогите собрать деньги на оплату серверов!!!

08-08-2018 02:36 Мстители Скачать торрент  

Мстители / The Avengers

Год выпуска: 2012
Страна: США
Жанр: фантастика, фэнтези, боевик, приключения
Продолжительность: 02:22:54
Перевод: Дублированный, авторский
Субтитры: Русские, английские, испанские, французские, украинские
Режиссер: Джосс Уидон
В ролях:

Роберт Дауни мл. (Tony Stark / Iron Man), Крис Эванс (Steve Rogers / Captain America), Марк Руффало (Bruce Banner / The Hulk), Крис Хемсворт (Thor), Скарлетт Йоханссон (Natasha Romanoff / Black Widow), Джереми Реннер (Clint Barton / Hawkeye), Том Хиддлстон (Loki), Сэмюэл Л. Джексон (Nick Fury), Кларк Грегг (Agent Phil Coulson), Коби Смолдерс (Agent Maria Hill), Стеллан Скарсгард (Selvig), Гвинет Пэлтроу (Pepper Potts)
Описание:
Локи, сводный брат Тора, возвращается, и в этот раз он не один. Земля на грани порабощения, и только лучшие из лучших могут спасти человечество.
Рейтинг:

MPAA: PG-13 - Детям до 13 лет просмотр не желателен
Качество: UHD BDRip 2160p
Формат: MKV
Видео: HEVC, HDR, 11.1 Mбит/с, 3840x2076, 23.976 Кадр/с
Аудио #1: Русский / (AC3, 6 ch, 640 Кбит/с) - Дублированный
Аудио #2: Украинский / (AC3, 6 ch, 640 Кбит/с) - Дублированный
Аудио #3: Русский / (DTS-HD МА, 8 ch, 5288 Кбит/c) - Авторский одноголосый (Ю. Cербин)
Аудио #4: Английский / (AC3, 6 ch, 640 Кбит/с) - Оригинал
Аудио #5: Английский / (TrueHD, 8 ch, 7056 Кбит/с) - Оригинал
Навигация по главам: есть
Complete name : E:\The.Avengers.2012.2160p.UHD.BluRay.x265-SpaceHD13.mkv
Format : Matroska
Format version : Version 4 / Version 2
File size : 23.4 GiB
Duration : 2 h 22 min
Overall bit rate mode : Variable
Overall bit rate : 23.5 Mb/s
Movie name : The.Avengers.2012.2160p.UHD.BluRay.x265-SpaceHD13
Encoded date : UTC 2018-08-07 21:23:10
Writing application : mkvmerge v25.0.0 ('Prog Noir') 64-bit
Writing library : libebml v1.3.6 + libmatroska v1.4.9

Video
ID : 1
Format : HEVC
Format/Info : High Efficiency Video Coding
Commercial name : HDR10
Format profile : Main [email protected]@High
Codec ID : V_MPEGH/ISO/HEVC
Duration : 2 h 22 min
Bit rate : 11.1 Mb/s
Width : 3 840 pixels
Height : 2 076 pixels
Display aspect ratio : 1.85:1
Frame rate mode : Constant
Frame rate : 23.976 (24000/1001) FPS
Color space : YUV
Chroma subsampling : 4:2:0 (Type 2)
Bit depth : 10 bits
Bits/(Pixel*Frame) : 0.058
Stream size : 11.1 GiB (47%)
Title : The.Avengers.2012.2160p.UHD.BluRay.x265-SpaceHD13
Writing library : x265 2.8+10-703eade86b53:[Windows][MSVC 1914][64 bit] 10bit
Encoding settings : cpuid=1111039 / frame-threads=6 / numa-pools=36 / wpp / no-pmode / no-pme / no-psnr / no-ssim / log-level=2 / input-csp=1 / input-res=3840x2076 / interlace=0 / total-frames=205611 / level-idc=51 / high-tier=1 / uhd-bd=0 / ref=4 / no-allow-non-conformance / repeat-headers / annexb / aud / hrd / info / hash=0 / no-temporal-layers / no-open-gop / min-keyint=1 / keyint=24 / gop-lookahead=0 / bframes=4 / b-adapt=2 / b-pyramid / bframe-bias=0 / rc-lookahead=25 / lookahead-slices=4 / scenecut=40 / radl=0 / no-intra-refresh / ctu=64 / min-cu-size=8 / rect / no-amp / max-tu-size=32 / tu-inter-depth=1 / tu-intra-depth=1 / limit-tu=0 / rdoq-level=2 / dynamic-rd=0.00 / no-ssim-rd / signhide / no-tskip / nr-intra=0 / nr-inter=0 / no-constrained-intra / no-strong-intra-smoothing / max-merge=3 / limit-refs=3 / limit-modes / me=3 / subme=3 / merange=57 / temporal-mvp / weightp / no-weightb / no-analyze-src-pics / deblock=-3:-3 / no-sao / no-sao-non-deblock / rd=4 / no-early-skip / rskip / no-fast-intra / no-tskip-fast / no-cu-lossless / no-b-intra / no-splitrd-skip / rdpenalty=0 / psy-rd=2.00 / psy-rdoq=1.00 / no-rd-refine / no-lossless / cbqpoffs=0 / crqpoffs=0 / rc=crf / crf=17.0 / qcomp=0.60 / qpstep=4 / stats-write=0 / stats-read=0 / vbv-maxrate=160000 / vbv-bufsize=160000 / vbv-init=0.9 / crf-max=0.0 / crf-min=0.0 / ipratio=1.40 / pbratio=1.30 / aq-mode=1 / aq-strength=1.00 / cutree / zone-count=0 / no-strict-cbr / qg-size=32 / no-rc-grain / qpmax=69 / qpmin=0 / no-const-vbv / sar=1 / overscan=0 / videoformat=5 / range=0 / colorprim=9 / transfer=16 / colormatrix=9 / chromaloc=1 / chromaloc-top=2 / chromaloc-bottom=2 / display-window=0 / master-display=G(13250,34500)B(7500,3000)R(34000,16000)WP(15635,16450)L(10000000,1) / max-cll=0,0 / min-luma=0 / max-luma=1023 / log2-max-poc-lsb=8 / vui-timing-info / vui-hrd-info / slices=1 / no-opt-qp-pps / no-opt-ref-list-length-pps / no-multi-pass-opt-rps / scenecut-bias=0.05 / no-opt-cu-delta-qp / no-aq-motion / hdr / hdr-opt / no-dhdr10-opt / no-idr-recovery-sei / analysis-reuse-level=5 / scale-factor=0 / refine-intra=0 / refine-inter=0 / refine-mv=0 / no-limit-sao / ctu-info=0 / no-lowpass-dct / refine-mv-type=0 / copy-pic=1 / max-ausize-factor=1.0 / no-dynamic-refine / no-single-sei
Default : Yes
Forced : No
Color range : Limited
Color primaries : BT.2020
Transfer characteristics : PQ
Matrix coefficients : BT.2020 non-constant
Mastering display color pri : Display P3
Mastering display luminance : min: 0.0001 cd/m2, max: 1000 cd/m2

Audio #1
ID : 2
Format : TrueHD
Format profile : TrueHD+Atmos / TrueHD
Codec ID : A_TRUEHD
Duration : 2 h 22 min
Bit rate mode : Variable
Bit rate : 4 971 kb/s
Maximum bit rate : 7 056 kb/s
Channel(s) : Object Based / 8 channels
Channel positions : Object Based / Front: L C R, Side: L R, Back: L R, LFE
Sampling rate : / 48.0 kHz
Frame rate : 1 200.000 FPS (40 SPF)
Compression mode : Lossless
Stream size : 4.96 GiB (21%)
Title : The.Avengers.2012.2160p.UHD.BluRay.x265-SpaceHD13
Language : English
Default : Yes
Forced : No

Audio #2
ID : 3
Format : AC-3
Format/Info : Audio Coding 3
Codec ID : A_AC3
Duration : 2 h 22 min
Bit rate mode : Constant
Bit rate : 640 kb/s
Channel(s) : 6 channels
Channel positions : Front: L C R, Side: L R, LFE
Sampling rate : 48.0 kHz
Frame rate : 31.250 FPS (1536 SPF)
Bit depth : 16 bits
Compression mode : Lossy
Stream size : 654 MiB (3%)
Title : The.Avengers.2012.2160p.UHD.BluRay.x265-SpaceHD13
Language : English
Service kind : Complete Main
Default : No
Forced : No

Audio #3
ID : 4
Format : AC-3
Format/Info : Audio Coding 3
Codec ID : A_AC3
Duration : 2 h 22 min
Bit rate mode : Constant
Bit rate : 640 kb/s
Channel(s) : 6 channels
Channel positions : Front: L C R, Side: L R, LFE
Sampling rate : 48.0 kHz
Frame rate : 31.250 FPS (1536 SPF)
Bit depth : 16 bits
Compression mode : Lossy
Delay relative to video : 1 s 0 ms
Stream size : 654 MiB (3%)
Title : The.Avengers.2012.2160p.UHD.BluRay.x265-SpaceHD13[Dub]
Language : Russian
Service kind : Complete Main
Default : No
Forced : No

Audio #4
ID : 5
Format : DTS
Format/Info : Digital Theater Systems
Format profile : MA / Core
Codec ID : A_DTS
Duration : 2 h 22 min
Bit rate mode : Variable / Constant
Bit rate : 5 288 kb/s / 1 509 kb/s
Channel(s) : 8 channels / 6 channels
Channel positions : Front: L C R, Side: L R, Back: L R, LFE / Front: L C R, Side: L R, LFE
Sampling rate : 48.0 kHz
Frame rate : 93.750 FPS (512 SPF)
Bit depth : 24 bits
Compression mode : Lossless / Lossy
Delay relative to video : 1 s 0 ms
Stream size : 5.28 GiB (23%)
Title : The.Avengers.2012.2160p.UHD.BluRay.x265-SpaceHD13[Ю.Сербин]
Language : Russian
Default : No
Forced : No

Audio #5
ID : 6
Format : AC-3
Format/Info : Audio Coding 3
Codec ID : A_AC3
Duration : 2 h 22 min
Bit rate mode : Constant
Bit rate : 640 kb/s
Channel(s) : 6 channels
Channel positions : Front: L C R, Side: L R, LFE
Sampling rate : 48.0 kHz
Frame rate : 31.250 FPS (1536 SPF)
Bit depth : 16 bits
Compression mode : Lossy
Delay relative to video : 1 s 0 ms
Stream size : 654 MiB (3%)
Title : The.Avengers.2012.2160p.UHD.BluRay.x265-SpaceHD13
Language : Ukrainian
Service kind : Complete Main
Default : No
Forced : No

Text #1
ID : 7
Format : PGS
Muxing mode : zlib
Codec ID : S_HDMV/PGS
Codec ID/Info : Picture based subtitle format used on BDs/HD-DVDs
Duration : 2 h 15 min
Bit rate : 38.5 kb/s
Count of elements : 4086
Stream size : 37.3 MiB (0%)
Language : English
Default : No
Forced : No

Text #2
ID : 8
Format : PGS
Muxing mode : zlib
Codec ID : S_HDMV/PGS
Codec ID/Info : Picture based subtitle format used on BDs/HD-DVDs
Duration : 3 min 46 s
Bit rate : 16.7 kb/s
Count of elements : 62
Stream size : 462 KiB (0%)
Title : English Forced
Language : English
Default : No
Forced : No

Text #3
ID : 9
Format : PGS
Muxing mode : zlib
Codec ID : S_HDMV/PGS
Codec ID/Info : Picture based subtitle format used on BDs/HD-DVDs
Duration : 2 h 15 min
Bit rate : 35.6 kb/s
Count of elements : 3524
Stream size : 34.5 MiB (0%)
Language : French
Default : No
Forced : No

Text #4
ID : 10
Format : PGS
Muxing mode : zlib
Codec ID : S_HDMV/PGS
Codec ID/Info : Picture based subtitle format used on BDs/HD-DVDs
Duration : 1 h 54 min
Bit rate : 853 b/s
Count of elements : 80
Stream size : 714 KiB (0%)
Language : French
Default : No
Forced : No

Text #5
ID : 11
Format : PGS
Muxing mode : zlib
Codec ID : S_HDMV/PGS
Codec ID/Info : Picture based subtitle format used on BDs/HD-DVDs
Duration : 2 h 15 min
Bit rate : 30.0 kb/s
Count of elements : 3268
Stream size : 29.1 MiB (0%)
Language : Spanish
Default : No
Forced : No

Text #6
ID : 12
Format : PGS
Muxing mode : zlib
Codec ID : S_HDMV/PGS
Codec ID/Info : Picture based subtitle format used on BDs/HD-DVDs
Duration : 2 h 4 min
Bit rate : 705 b/s
Count of elements : 78
Stream size : 645 KiB (0%)
Language : Spanish
Default : No
Forced : No

Text #7
ID : 13
Format : PGS
Muxing mode : zlib
Codec ID : S_HDMV/PGS
Codec ID/Info : Picture based subtitle format used on BDs/HD-DVDs
Duration : 2 h 4 min
Bit rate : 629 b/s
Count of elements : 44
Stream size : 576 KiB (0%)
Language : Russian
Default : No
Forced : No

Text #8
ID : 14
Format : PGS
Muxing mode : zlib
Codec ID : S_HDMV/PGS
Codec ID/Info : Picture based subtitle format used on BDs/HD-DVDs
Duration : 2 h 4 min
Bit rate : 629 b/s
Count of elements : 44
Stream size : 576 KiB (0%)
Language : Russian
Default : No
Forced : No

Text #9
ID : 15
Format : PGS
Muxing mode : zlib
Codec ID : S_HDMV/PGS
Codec ID/Info : Picture based subtitle format used on BDs/HD-DVDs
Duration : 2 h 15 min
Bit rate : 47.3 kb/s
Count of elements : 3532
Stream size : 45.8 MiB (0%)
Language : Russian
Default : Yes
Forced : Yes

Text #10
ID : 16
Format : PGS
Muxing mode : zlib
Codec ID : S_HDMV/PGS
Codec ID/Info : Picture based subtitle format used on BDs/HD-DVDs
Duration : 2 h 15 min
Bit rate : 47.0 kb/s
Count of elements : 3502
Stream size : 45.5 MiB (0%)
Language : Ukrainian
Default : No
Forced : No

Menu
00:00:00.000 : en:00:00:00.000
00:08:03.149 : en:00:08:03.149
00:11:50.001 : en:00:11:50.001
00:15:19.585 : en:00:15:19.585
00:20:34.316 : en:00:20:34.316
00:23:05.092 : en:00:23:05.092
00:29:40.278 : en:00:29:40.278
00:37:24.826 : en:00:37:24.826
00:42:48.816 : en:00:42:48.816
00:50:23.103 : en:00:50:23.103
01:01:05.495 : en:01:01:05.495
01:14:05.941 : en:01:14:05.941
01:28:02.068 : en:01:28:02.068
01:38:21.395 : en:01:38:21.395
01:45:41.001 : en:01:45:41.001
01:51:15.919 : en:01:51:15.919
01:57:48.603 : en:01:57:48.603
02:04:39.514 : en:02:04:39.514
02:09:40.231 : en:02:09:40.231
02:13:11.525 : en:02:13:11.525
freetor.icu



Скачать Мстители через торрент https://d.radikal.ru/d19/1808/62/ea18e70c17be.png Скачать, смотреть онлайн Мстители бесплантно в хорошем качестве Описание: Локи, сводный брат Тора, возвращается, и в этот раз он не один. Земля на грани порабощения, и только лучшие из лучших могут ... 10 10 3
Торрент: Зарегистрирован [2018-08-08 02:36] · скачан: 91 раз
Статус: √ проверено
Размер: 23.42 GB
Как cкачать? Как скачать Мстители через торрент | UTorrent

% Раздел Тема Автор DL S | L
Ultra HD (UHD: 2K, 4K, 8K) — видео сверхвысокой чёткости [ 16.6 GB ] Первый мститель / Captain America: The First Avenger [2011 UHD BDRip 2160p] DUB + 2xAVO sheker187 Скачать
1 | 0
Ultra HD (UHD: 2K, 4K, 8K) — видео сверхвысокой чёткости [ 60.67 GB ] Первый мститель / Captain America: The First Avenger [2011 UHD BDRemux 2160p] 2xAVO+2xDUB [] bober100 Скачать
1 | 0
Ultra HD (UHD: 2K, 4K, 8K) — видео сверхвысокой чёткости [ 66.03 GB ] Первый мститель / Captain America: The First Avenger [2011 UHD Blu-ray 2160p] 2xAVO+2xDUB [] bober100 Скачать
1 | 0
Ultra HD (UHD: 2K, 4K, 8K) — видео сверхвысокой чёткости [ 40.8 GB ] Мстители / The Avengers [2012 UHD BDRip 2160p] [SDR] 2xAVO+DUB [] bober100 Скачать
1 | 0
Ultra HD (UHD: 2K, 4K, 8K) — видео сверхвысокой чёткости [ 69.16 GB ] Мстители / The Avengers [2012 UHD Blu-Ray 2160p] [Custom] 2xAVO+DUB [] bober100 Скачать
1 | 0
Ultra HD (UHD: 2K, 4K, 8K) — видео сверхвысокой чёткости [ 68.62 GB ] Мстители / The Avengers [2012 UHD BDRemux 2160p] DUB + 2xAVO sheker187 Скачать
1 | 0
Мультсериалы [ 16.6 GB ] Мстители: Величайшие герои Земли / The Avengers: Earth's Mightiest Heroes / Сезоны 1 2 / Серии 1 - 52 из 52 [2010-2012 мультфильм DVDRip-AVC от AVP Studio] DUB + Sub AVP Studio Скачать
1 | 0

28-11-2019 20:33  

Отключить всю рекламу на сайте

12-01-2020 10:53 Мстители Скачать торрент  

Люди подкиньте дров!!!freetor.icu



    Дорогой пользователь! Огромная просьба, поблагодарите релизера, оцените раздачу и оставьте свои комментарий, если Вы скачали Мстители через торрент бесплатно!
    Комментировать посты могут только пользователи прошедшие не сложную регистрацию
    Показать сообщения:    

    Мстители через торрент
    Скачать бесплатно Мстители
    Мстители скачать торрент
    Мстители смотреть онлайн
    Cкачать фильм Мстители бесплатно
    Мстители скачать торрент в хорошем качестве
    Мстители смотреть онлайн бесплатно в хорошем качестве


    Вы не можете начинать темы
    Вы не можете отвечать на сообщения
    Вы не можете редактировать свои сообщения
    Вы не можете удалять свои сообщения
    Вы не можете голосовать в опросах
    Вы не можете прикреплять файлы к сообщениям
    Вы можете скачивать файлы