>

5.6

iTunes

6.1

MVO

5.7

MVO

1

7.4

1 сезон

6.8

iTunes

7.2

1 сезон

13

6.7

1 сезон

8.3

RePack

30

Deluxe

pack

9.9

Лицензия

ВАЖНО

ИГРА 18+

pack

7.3

RePack

MK11

7.7

RePack

jed

7.8

RePack

fifa19

8.5

RePack

RDR2

RePack

NEED FOR SPEED™ PAYBACK

4 сезон

9 сезон

Бесстыжие 9 сезон

Все сериалы

все сериалы на PB.wtf

RePack

FAR CRY 5

Anonymous, добрый день, мы катастрофически не успеваем собрать деньги на оплату серверов, помогите нам пожалуйста 5,10,15р., для нас важна любая помощь . В качестве благодарности мы отключим Вам всю рекламу на сайте (укажите свой ник в строку Ваше имя)!

×
  
Magnet ссылка

Сингам / Лев / Singham (Рохит Шетти) [2011, боевик, драма, криминал, BDRip] MVO [RedMedia] freetor.icu

Сингам через торрент freetor.icu

Размер: 2.18 GB | Добавлен: 3 года 1 мес. назад | Торрент скачан:68 раз
Смотреть онлайн Сингам | Скачать    Ребята, помогите собрать деньги на оплату серверов!!!

24-07-2018 15:16 Сингам Скачать торрент  

Сингам / Singham Страна: Индия
Жанр: боевик, драма, криминал
Год выхода: 2011
Продолжительность: 02:22:06
Перевод: профессиональный (многоголосый, закадровый) | RedMedia
Субтитры: нет

Режиссер: Рохит Шетти / Rohit Shetty

В ролях:

Аджай Девган, Каджал, Пракаш Радж, Сонали Кулкарни, Сачин Кхедекар, Суданшу Пандей, Сучитра Бандекар, Равиндра Берде, Сухасини Дешпандэ, Агастхья Дханоркар

Описание:

Действие фильма разворачивается на фоне маленькой деревушки на границе штатов Махараштра и Гоа, где честный, старательный и благородный инспектор Баджи Рао Сингхам, борется против несправедливости и предрассудков, используя свою собственную этику и принципы.

Внезапный поворот судьбы приводит к конфликту с чрезвычайно могущественным и связанным с преступным миром политиком, проверяя на прочность честь и совесть Сингхама. Властный и сильный хозяин города не оставляет в нём камня на камне, чтобы превратить жизнь Сингхама в ночной кошмар. Поддержка подруги и встреча с давними друзьями помогают Сингхаму осознать важность непримиримой борьбы с системой, но не идя против закона силы, а будучи её мощной частью.

rating

Релиз от -
Автор: Gellard

Сэмпл: скачать

Качество: BDRip (источник: AsianDVDClub / Blu-Ray Disc / 1080p)
Формат: AVI

Видео: 720x304 (2.37:1), 23.976 fps, XviD build 65 ~1997 kbps avg, 0.38 bit/pixel
Аудио: 48 kHz, AC3 Dolby Digital, 2/0 (L,R) ch, 192.00 kbps avg
1. Присутствует плавающий кроп слева и справа (см. сэмпл).
2. Синхронизация перевода - Gellard.
скриншот   скриншот   скриншот   скриншот   скриншот  
General
Complete name                            : Singam.2011.RUS.BDRip.XviD.AC3.-HQCLUB.avi
Format                                   : AVI
Format/Info                              : Audio Video Interleave
Format profile                           : OpenDML
File size                                : 2.18 GiB
Duration                                 : 2h 22mn
Overall bit rate                         : 2 197 Kbps
Movie name                               : Сингам / Лев / Singham (2011) BDRip
Director                                 : Gellard
Genre                                    : боевик, драма, криминал
Writing application                      : VirtualDubMod 1.5.10.2 (build 2542/release)
Writing library                          : VirtualDubMod build 2542/release
Copyright                                : HQCLUB
Comment                                  : 16.03.2015

Video
ID                                       : 0
Format                                   : MPEG-4 Visual
Format profile                           : Advanced Simple@L5
Format settings, BVOP                    : 1
Format settings, QPel                    : No
Format settings, GMC                     : No warppoints
Format settings, Matrix                  : Custom
Codec ID                                 : XVID
Codec ID/Hint                            : XviD
Duration                                 : 2h 22mn
Bit rate                                 : 1 993 Kbps
Width                                    : 720 pixels
Height                                   : 304 pixels
Display aspect ratio                     : 2.35:1
Frame rate                               : 23.976 fps
Color space                              : YUV
Chroma subsampling                       : 4:2:0
Bit depth                                : 8 bits
Scan type                                : Progressive
Compression mode                         : Lossy
Bits/(Pixel*Frame)                       : 0.380
Stream size                              : 1.98 GiB (91%)
Writing library                          : XviD 65

Audio
ID                                       : 1
Format                                   : AC-3
Format/Info                              : Audio Coding 3
Mode extension                           : CM (complete main)
Format settings, Endianness              : Big
Codec ID                                 : 2000
Duration                                 : 2h 22mn
Bit rate mode                            : Constant
Bit rate                                 : 192 Kbps
Channel count                            : 2 channels
Channel positions                        : Front: L R
Sampling rate                            : 48.0 KHz
Bit depth                                : 16 bits
Compression mode                         : Lossy
Stream size                              : 195 MiB (9%)
Alignment                                : Split accross interleaves
Interleave, duration                     : 42 ms (1.00 video frame)
Interleave, preload duration             : 500 ms
freetor.icu



Скачать Сингам через торрент http://i5.imageban.ru/out/2015/03/16/dd94ddca553fb65048205c057f386341.png Скачать, смотреть онлайн Сингам бесплантно в хорошем качестве Описание: Действие фильма разворачивается на фоне маленькой деревушки на границе штатов Махараштра и Гоа, где честный, старательный и ... 10 10 4
Торрент: Зарегистрирован [2018-07-24 15:16] · скачан: 68 раз
Статус: T временная
Размер: 2.18 GB
Как cкачать? Как скачать Сингам через торрент | UTorrent

28-11-2019 20:33  

Отключить всю рекламу на сайте

24-07-2018 15:42 Сингам Скачать торрент  

классный фильмец...ожидал 2 часа соплей и танцев а получил удовольствие от просмотра фильма....индийское кино уже не то..и это мне тоже нравится-)freetor.icu



    Дорогой пользователь! Огромная просьба, поблагодарите релизера, оцените раздачу и оставьте свои комментарий, если Вы скачали Сингам через торрент бесплатно!
    Комментировать посты могут только пользователи прошедшие не сложную регистрацию
    Показать сообщения:    

    Сингам через торрент
    Скачать бесплатно Сингам
    Сингам скачать торрент
    Сингам смотреть онлайн
    Cкачать фильм Сингам бесплатно
    Сингам скачать торрент в хорошем качестве
    Сингам смотреть онлайн бесплатно в хорошем качестве


    Вы не можете начинать темы
    Вы не можете отвечать на сообщения
    Вы не можете редактировать свои сообщения
    Вы не можете удалять свои сообщения
    Вы не можете голосовать в опросах
    Вы не можете прикреплять файлы к сообщениям
    Вы можете скачивать файлы