Всегда рабочее зеркало без VPN и Proxy просто перед .vidak.icu напиши любое слово или цифру, Пример http://mz33.vidak.icu

MVO

Лицензия

1 сезон

1

1 сезон

iTunes

1 сезон

13

1 сезон

Deluxe

pack

Рекомендуем

Пиратка

30

ВАЖНО

RePack

MK11

RePack

jed

RePack

fifa19

RePack

RDR2

RePack

NEED FOR SPEED™ PAYBACK

Кинопоиск HD

6 сезон

 Острые козырьки 6 сезон

Все сериалы

все сериалы на PB.wtf

RePack

FAR CRY 5

Anonymous, нам критически не хватает 2100 руб. на оплату серверов и переферии за МАЙ, помоги нам пожалуйста, вся надежда только на тебя. В благодарность мы отключим тебе всю рекламу на сайте!

×
  
Magnet ссылка

Великий уравнитель / The Equalizer (Антуан Фукуа) [2014, боевик, триллер, криминал, UHD BDRip 2160p] DUB (rus, ukr) freetor.icu

Великий уравнитель через торрент freetor.icu

Раздают: 1 [ 0 KB/s ]
Размер: 21.39 GB | Добавлен: 3 года 11 мес. назад | Торрент скачан:181 раз
Смотреть онлайн Великий уравнитель | Скачать    Ребята, помогите собрать деньги на оплату серверов!!!

12-07-2018 18:28 Великий уравнитель Скачать торрент  

Великий уравнитель / The Equalizer

Год выпуска: 2014
Страна: США
Жанр: боевик, триллер, криминал
Продолжительность: 02:12:02
Перевод: Дублированный
Субтитры: Русские, английские
Режиссер: Антуан Фукуа
В ролях:

Дензел Вашингтон (Robert McCall), Мартон Чокаш (Teddy), Хлоя Грейс Морец (Teri), Дэвид Харбор (Masters), Хейли Беннетт (Mandy), Билл Пуллман (Brian Plummer), Мелисса Лео (Susan Plummer), Дэвид Мюнье (Slavi), Джонни Скуртис (Ralphie), Алекс Видов (Tevi), Владимир Кулих (Vladimir Pushkin), Э. Роджер Митчелл (Lead Investigator)
Описание:
Бывший агент ЦРУ, пожилой афро-американец Роберт Маккол, решил начать жизнь заново, оставить своё непростое, полное тайн и опасностей прошлое и научиться смотреть в будущее. Он пообещал это своей покойной жене. Он уже нашёл для себя вполне обычную работу на пенсии - продавца в магазине товаров для дома. Однажды Маккол вступился за юную проститутку Тери, с которой он частенько приятно болтал в местной закусочной и которая, как оказалось, находится под контролем бандитов русской мафии...
Рейтинг:

MPAA: R - Лицам до 17 лет обязательно присутствие взрослого
Качество: UHD BDRip 2160p
Формат: MKV
Видео: HEVC, HDR, 16.6 Mбит/с, 3840x1600, 23.976 Кадр/с
Аудио #1: Русский / AC3, 6 ch, 640 Кбит/c / - Дубляж
Аудио #2: Украинский / AC3, 6 ch, 640 Кбит/c / - Дубляж
Аудио #3: Английский / AC3, 6 ch, 640 Кбит/c / - Original
Аудио #4: Английский / TrueHD, 8 ch, 7812 Кбит/с / - Original
Навигация по главам: Есть
Complete name : E:\The.Equalizer.2014.2160p.UHD.BluRay.x265-SpaceHD13.mkv
Format : Matroska
Format version : Version 4 / Version 2
File size : 21.4 GiB
Duration : 2 h 12 min
Overall bit rate mode : Variable
Overall bit rate : 23.2 Mb/s
Movie name : The.Equalizer.2014.2160p.UHD.BluRay.x265-SpaceHD13
Encoded date : UTC 2018-07-12 16:40:28
Writing application : mkvmerge v24.0.0 ('Beyond The Pale') 64-bit
Writing library : libebml v1.3.6 + libmatroska v1.4.9

Video
ID : 1
Format : HEVC
Format/Info : High Efficiency Video Coding
Commercial name : HDR10
Format profile : Main [email protected]@High
Codec ID : V_MPEGH/ISO/HEVC
Duration : 2 h 12 min
Bit rate : 16.6 Mb/s
Width : 3 840 pixels
Height : 1 600 pixels
Display aspect ratio : 2.40:1
Frame rate mode : Constant
Frame rate : 23.976 (24000/1001) FPS
Color space : YUV
Chroma subsampling : 4:2:0 (Type 2)
Bit depth : 10 bits
Bits/(Pixel*Frame) : 0.113
Stream size : 15.3 GiB (72%)
Title : The.Equalizer.2014.2160p.UHD.BluRay.x265-SpaceHD13
Writing library : x265 2.8+10-703eade86b53:[Windows][MSVC 1914][64 bit] 10bit
Encoding settings : cpuid=1111039 / frame-threads=5 / numa-pools=36 / wpp / no-pmode / no-pme / no-psnr / no-ssim / log-level=2 / input-csp=1 / input-res=3840x1600 / interlace=0 / total-frames=189960 / level-idc=51 / high-tier=1 / uhd-bd=0 / ref=4 / no-allow-non-conformance / repeat-headers / annexb / aud / hrd / info / hash=0 / no-temporal-layers / no-open-gop / min-keyint=1 / keyint=24 / gop-lookahead=0 / bframes=4 / b-adapt=2 / b-pyramid / bframe-bias=0 / rc-lookahead=25 / lookahead-slices=4 / scenecut=40 / radl=0 / no-intra-refresh / ctu=64 / min-cu-size=8 / rect / no-amp / max-tu-size=32 / tu-inter-depth=1 / tu-intra-depth=1 / limit-tu=0 / rdoq-level=2 / dynamic-rd=0.00 / no-ssim-rd / signhide / no-tskip / nr-intra=0 / nr-inter=0 / no-constrained-intra / no-strong-intra-smoothing / max-merge=3 / limit-refs=3 / limit-modes / me=3 / subme=3 / merange=57 / temporal-mvp / weightp / no-weightb / no-analyze-src-pics / deblock=-3:-3 / no-sao / no-sao-non-deblock / rd=4 / no-early-skip / rskip / no-fast-intra / no-tskip-fast / no-cu-lossless / no-b-intra / no-splitrd-skip / rdpenalty=0 / psy-rd=2.00 / psy-rdoq=1.00 / no-rd-refine / no-lossless / cbqpoffs=0 / crqpoffs=0 / rc=crf / crf=17.0 / qcomp=0.60 / qpstep=4 / stats-write=0 / stats-read=0 / vbv-maxrate=160000 / vbv-bufsize=160000 / vbv-init=0.9 / crf-max=0.0 / crf-min=0.0 / ipratio=1.40 / pbratio=1.30 / aq-mode=1 / aq-strength=1.00 / cutree / zone-count=0 / no-strict-cbr / qg-size=32 / no-rc-grain / qpmax=69 / qpmin=0 / no-const-vbv / sar=1 / overscan=0 / videoformat=5 / range=0 / colorprim=9 / transfer=16 / colormatrix=9 / chromaloc=1 / chromaloc-top=2 / chromaloc-bottom=2 / display-window=0 / master-display=G(13250,34500)B(7500,3000)R(34000,16000)WP(15635,16450)L(40000000,50) / max-cll=7397,836 / min-luma=0 / max-luma=1023 / log2-max-poc-lsb=8 / vui-timing-info / vui-hrd-info / slices=1 / no-opt-qp-pps / no-opt-ref-list-length-pps / no-multi-pass-opt-rps / scenecut-bias=0.05 / no-opt-cu-delta-qp / no-aq-motion / hdr / hdr-opt / no-dhdr10-opt / no-idr-recovery-sei / analysis-reuse-level=5 / scale-factor=0 / refine-intra=0 / refine-inter=0 / refine-mv=0 / no-limit-sao / ctu-info=0 / no-lowpass-dct / refine-mv-type=0 / copy-pic=1 / max-ausize-factor=1.0 / no-dynamic-refine / no-single-sei
Default : Yes
Forced : No
Color range : Limited
Color primaries : BT.2020
Transfer characteristics : PQ
Matrix coefficients : BT.2020 non-constant
Mastering display color pri : Display P3
Mastering display luminance : min: 0.0050 cd/m2, max: 4000 cd/m2
Maximum Content Light Level : 7397 cd/m2
Maximum Frame-Average Light : 836 cd/m2

Audio #1
ID : 2
Format : TrueHD
Format profile : TrueHD+Atmos / TrueHD
Codec ID : A_TRUEHD
Duration : 2 h 12 min
Bit rate mode : Variable
Bit rate : 4 557 kb/s
Maximum bit rate : 7 812 kb/s
Channel(s) : Object Based / 8 channels
Channel positions : Object Based / Front: L C R, Side: L R, Back: L R, LFE
Sampling rate : / 48.0 kHz
Frame rate : 1 200.000 FPS (40 SPF)
Compression mode : Lossless
Stream size : 4.20 GiB (20%)
Title : The.Equalizer.2014.2160p.UHD.BluRay.x265-SpaceHD13
Language : English
Default : No
Forced : No

Audio #2
ID : 3
Format : AC-3
Format/Info : Audio Coding 3
Codec ID : A_AC3
Duration : 2 h 12 min
Bit rate mode : Constant
Bit rate : 640 kb/s
Channel(s) : 6 channels
Channel positions : Front: L C R, Side: L R, LFE
Sampling rate : 48.0 kHz
Frame rate : 31.250 FPS (1536 SPF)
Bit depth : 16 bits
Compression mode : Lossy
Stream size : 604 MiB (3%)
Title : The.Equalizer.2014.2160p.UHD.BluRay.x265-SpaceHD13
Language : English
Service kind : Complete Main
Default : No
Forced : No

Audio #3
ID : 4
Format : AC-3
Format/Info : Audio Coding 3
Codec ID : A_AC3
Duration : 2 h 12 min
Bit rate mode : Constant
Bit rate : 640 kb/s
Channel(s) : 6 channels
Channel positions : Front: L C R, Side: L R, LFE
Sampling rate : 48.0 kHz
Frame rate : 31.250 FPS (1536 SPF)
Bit depth : 16 bits
Compression mode : Lossy
Stream size : 604 MiB (3%)
Title : The.Equalizer.2014.2160p.UHD.BluRay.x265-SpaceHD13
Language : Russian
Service kind : Complete Main
Default : Yes
Forced : Yes

Audio #4
ID : 5
Format : AC-3
Format/Info : Audio Coding 3
Codec ID : A_AC3
Duration : 2 h 12 min
Bit rate mode : Constant
Bit rate : 640 kb/s
Channel(s) : 6 channels
Channel positions : Front: L C R, Side: L R, LFE
Sampling rate : 48.0 kHz
Frame rate : 31.250 FPS (1536 SPF)
Bit depth : 16 bits
Compression mode : Lossy
Stream size : 604 MiB (3%)
Title : The.Equalizer.2014.2160p.UHD.BluRay.x265-SpaceHD13
Language : Ukrainian
Service kind : Complete Main
Default : No
Forced : No

Text #1
ID : 6
Format : UTF-8
Codec ID : S_TEXT/UTF8
Codec ID/Info : UTF-8 Plain Text
Duration : 1 h 50 min
Bit rate : 1 b/s
Count of elements : 50
Stream size : 1.11 KiB (0%)
Title : English Forced
Language : English
Default : Yes
Forced : No

Text #2
ID : 7
Format : PGS
Muxing mode : zlib
Codec ID : S_HDMV/PGS
Codec ID/Info : Picture based subtitle format used on BDs/HD-DVDs
Duration : 2 h 10 min
Bit rate : 30.0 kb/s
Count of elements : 3063
Stream size : 28.1 MiB (0%)
Title : English SDH
Language : English
Default : No
Forced : No

Text #3
ID : 8
Format : PGS
Muxing mode : zlib
Codec ID : S_HDMV/PGS
Codec ID/Info : Picture based subtitle format used on BDs/HD-DVDs
Duration : 2 h 2 min
Bit rate : 22.9 kb/s
Count of elements : 2144
Stream size : 20.1 MiB (0%)
Language : English
Default : No
Forced : No

Text #4
ID : 9
Format : PGS
Muxing mode : zlib
Codec ID : S_HDMV/PGS
Codec ID/Info : Picture based subtitle format used on BDs/HD-DVDs
Duration : 2 h 6 min
Bit rate : 18.5 kb/s
Count of elements : 2389
Stream size : 16.6 MiB (0%)
Language : Russian
Default : No
Forced : No

Menu
00:00:00.000 : en:00:00:00.000
00:06:49.659 : en:00:06:49.659
00:13:03.574 : en:00:13:03.574
00:20:55.796 : en:00:20:55.796
00:25:48.756 : en:00:25:48.756
00:35:26.458 : en:00:35:26.458
00:46:32.123 : en:00:46:32.123
00:55:44.007 : en:00:55:44.007
01:03:59.419 : en:01:03:59.419
01:13:53.054 : en:01:13:53.054
01:20:58.729 : en:01:20:58.729
01:31:09.339 : en:01:31:09.339
01:38:37.745 : en:01:38:37.745
01:47:28.984 : en:01:47:28.984
01:55:38.265 : en:01:55:38.265
02:00:01.486 : en:02:00:01.486
freetor.icu



Скачать Великий уравнитель через торрент https://a.radikal.ru/a20/1807/22/f955efd57c6f.png Скачать, смотреть онлайн Великий уравнитель бесплантно в хорошем качестве Описание: Бывший агент ЦРУ, пожилой афро-американец Роберт Маккол, решил начать жизнь заново, оставить своё непростое, полное тайн и ... 10 10 6
Info! Золотая раздача, скачанное не засчитывается.
Торрент: Зарегистрирован [2018-07-12 18:28] · скачан: 181 раз
Статус: √ проверено
Размер: 21.39 GB
Как cкачать? Как скачать Великий уравнитель через торрент | UTorrent

% Раздел Тема Автор DL S | L
Фильмы (HD 720p, 1080p) (48-60 fps) [ 3.32 GB ] Великий уравнитель 2 / The Equalizer 2 [2018 BDRip 720p / 60 FPS BD CEE] от R.G. HD-Films slaventi-69 Скачать
1 | 0
Фильмы (DVD фильмы) [ 7.74 GB ] Великий уравнитель 2 / The Equalizer 2 [2018 DVD9 ] + [AVO] killermax2013 Скачать
1 | 0
Фильмы (HD 720p, 1080p) (48-60 fps) [ 14.85 GB ] Великий уравнитель 2 / The Equalizer 2 [2018 BDRip 1080p 60 fps] DUB [] bober100 Скачать
1 | 0
Ultra HD (UHD: 2K, 4K, 8K) — видео сверхвысокой чёткости [ 56.03 GB ] Великий уравнитель 2 / The Equalizer 2 [2018 UHD Blu-Ray EUR 2160p] DUB [] bober100 Скачать
1 | 0
Фильмы [HD 720p, 1080p] (Хороший звук DUB, MVO) [ 7.31 GB ] Великий уравнитель / The Equalizer [2014 BDRip 1080p HEVC ()+4хAVO] Мичман37 Скачать
1 | 0
Фильмы (Blu-ray, BD-Remux, HDDVD) [ 40.83 GB ] Великий уравнитель 2 / The Equalizer 2 [2018 Blu-ray 1080p] DUB [] bober100 Скачать
1 | 0
Ultra HD (UHD: 2K, 4K, 8K) — видео сверхвысокой чёткости [ 26.32 GB ] Великий уравнитель 2 / The Equalizer 2 [2018 UHD BDRip 2160p] [SDR] DUB + AVO [Дмитрий Есарев] sheker187 Скачать
1 | 0

28-11-2019 20:33  

Отключить всю рекламу на сайте

    Дорогой пользователь! Огромная просьба, поблагодарите релизера, оцените раздачу и оставьте свои комментарий, если Вы скачали Великий уравнитель через торрент бесплатно!
    Комментировать посты могут только пользователи прошедшие не сложную регистрацию
    Показать сообщения:    

    Великий уравнитель через торрент
    Скачать бесплатно Великий уравнитель
    Великий уравнитель скачать торрент
    Великий уравнитель смотреть онлайн
    Cкачать фильм Великий уравнитель бесплатно
    Великий уравнитель скачать торрент в хорошем качестве
    Великий уравнитель смотреть онлайн бесплатно в хорошем качестве


    Вы не можете начинать темы
    Вы не можете отвечать на сообщения
    Вы не можете редактировать свои сообщения
    Вы не можете удалять свои сообщения
    Вы не можете голосовать в опросах
    Вы не можете прикреплять файлы к сообщениям
    Вы можете скачивать файлы