Всегда рабочее зеркало без VPN и Proxy просто перед .vidak.icu напиши любое слово или цифру, Пример http://1z5a.vidak.icu

MVO

Лицензия

1 сезон

1

1 сезон

iTunes

1 сезон

13

1 сезон

Deluxe

pack

Рекомендуем

Пиратка

30

ВАЖНО

RePack

MK11

RePack

jed

RePack

fifa19

RePack

RDR2

RePack

NEED FOR SPEED™ PAYBACK

Кинопоиск HD

6 сезон

 Острые козырьки 6 сезон

Все сериалы

все сериалы на PB.wtf

RePack

FAR CRY 5

Anonymous, нам критически не хватает 2100 руб. на оплату серверов и переферии за МАЙ, помоги нам пожалуйста, вся надежда только на тебя. В благодарность мы отключим тебе всю рекламу на сайте!

×
  
Magnet ссылка

Миссия: невыполнима / Mission: Impossible (Брайан Де Пальма) [1996, боевик, триллер, приключения, UHD BDRemux 2160p] 7xMVO + 6xAVO + 2xDVO freetor.icu

Миссия: невыполнима через торрент freetor.icu

Размер: 64.08 GB | Добавлен: 3 года 5 мес. назад | Торрент скачан:11 раз
Смотреть онлайн Миссия: невыполнима | Скачать    Ребята, помогите собрать деньги на оплату серверов!!!

30-06-2018 01:33 Миссия: невыполнима Скачать торрент  

Миссия: невыполнима / Mission: Impossible

Год выпуска: 1996
Страна: США
Жанр: боевик, триллер, приключения
Продолжительность: 01:50:12
Перевод: Профессиональный многоголосый, профессиональный двухголосый, авторский
Субтитры: русские (UHD Blu-Ray, Позитив-Мультимедиа), английские (forced, full, SDH)
Режиссер: Брайан Де Пальма
В ролях:

Том Круз (Ethan Hunt), Джон Войт (Jim Phelps), Эммануэль Беар (Claire), Генри Черни (Kittridge), Жан Рено (Krieger), Винг Реймз (Luther), Кристин Скотт Томас (Sarah Davies), Ванесса Редгрейв (Max), Ингеборга Дапкунайте (Hannah), Эмилио Эстевес (Jack Harmon, в титрах не указан), Валентина Якунина (Drunken Female IMF Agent), Марек Васут (Drunken Male IMF Agent)
Описание:
Агент ЦРУ Итан Хант оказался в положении подозреваемого в предательстве «крота», из-за которого погибли несколько членов его команды, включая руководителя группы Джима Фелпса. В живых осталась еще только коллега Ханта - жена Фелпса агент Клэр. Чтобы снять с себя обвинения в предательстве, Ханту надо найти настоящего «крота».
Рейтинг:

MPAA: PG-13 - Детям до 13 лет просмотр не желателен
Качество: UHD BDRemux 2160p [Mission: Impossible 1996 2160p CEE UHD Blu-ray HEVC TrueHD 5.1-TTG]
Формат: MKV
Видео: MPEG-H HEVC Video / 56540 kbps / 3840x2160 / 23.976 fps / 16:9 / Main 10 Profile 5.1 High / 4:2:0 / 10 bits / HDR / BT.2020 /
Аудио 1: Russian AC3 / 5.1 / 48 kHz / 640 kbps / 24-bit |MVO, UHD Blu-Ray|
Аудио 2: Russian DTS-HD Master Audio / 5.1 / 48 kHz / 3789 kbps / 24-bit (DTS Core: 5.1 / 48 kHz / 1509 kbps / 24-bit) |MVO, Позитив-Мультимедиа|
Аудио 3: Russian AC3 / 5.1 / 48 kHz / 384 kbps / 16-bit |MVO, Киномания|
Аудио 4: Russian AC3 / 5.1 / 48 kHz / 448 kbps / 16-bit |MVO, НТВ|
Аудио 5: Russian AC3 / 5.1 / 48 kHz / 384 kbps / 16-bit |MVO, с DVD издания Astra|
Аудио 6: Russian AC3 / 2.0 / 48 kHz / 224 kbps / 16-bit |MVO, ОРТ|
Аудио 7: Russian AC3 / 2.0 / 48 kHz / 224 kbps / 16-bit |MVO, СТС|
Аудио 8: Russian DTS-HD Master Audio / 5.1 / 48 kHz / 3784 kbps / 24-bit (DTS Core: 5.1 / 48 kHz / 1509 kbps / 24-bit) |DVO, П. Гланц и И. Королёва|
Аудио 9: Russian AC3 / 2.0 / 48 kHz / 192 kbps / 16-bit |DVO, Премьер Видео|
Аудио 10: Russian DTS-HD Master Audio / 5.1 / 48 kHz / 3781 kbps / 24-bit (DTS Core: 5.1 / 48 kHz / 1509 kbps / 24-bit) |А. Гаврилов|
Аудио 11: Russian DTS-HD Master Audio / 5.1 / 48 kHz / 3788 kbps / 24-bit (DTS Core: 5.1 / 48 kHz / 1509 kbps / 24-bit) |Ю. Живов|
Аудио 12: Russian DTS-HD Master Audio / 5.1 / 48 kHz / 3784 kbps / 24-bit (DTS Core: 5.1 / 48 kHz / 1509 kbps / 24-bit) |С. Визгунов #1|
Аудио 13: Russian AC3 / 2.0 / 48 kHz / 192 kbps / 16-bit |С. Визгунов (ранний с VHS) #2|
Аудио 14: Russian AC3 / 2.0 / 48 kHz / 192 kbps / 16-bit |С. Визгунов (с VHS) #3|
Аудио 15: Russian AC3 / 5.1 / 48 kHz / 384 kbps / 16-bit |М. Латышев|
Аудио 16: Russian AC3 / 2.0 / 48 kHz / 192 kbps / 16-bit |С. Кузнецов|
Аудио 17: Russian AC3 / 2.0 / 48 kHz / 192 kbps / 16-bit |Диктор CDV|
Аудио 18: English Dolby TrueHD Audio / 5.1 / 48 kHz / 4005 kbps / 24-bit |original|
Аудио 19: English AC3 Core: 5.1 / 48 kHz / 640 kbps |original|
Навигация по главам: есть
Всего 3 награды и 13 номинацмй еа разных кинофестивалях.
BMI Film & TV Awards (1997)
Победитель (1):
* BMI Film Music Award (Danny Elfman)
==========================
Golden Screen, Germany (1996)
Победитель (1):
* Golden Screen
==========================
PGA Awards (1997)
Победитель (1):
* Nova AwardMost Promising Producer in Theatrical Motion Pictures (Tom Cruise, Paula Wagner)
=========================
Премия канала «MTV» (1997)
Номинации (1):
* Лучшая экшн-сцена
==========================
Золотая малина (1997)
Номинации (1):
* Худший блокбастер (фильм, собравший более 100 млн. долларов)
==========================
Сатурн (1997)
Номинации (1):
* Лучший приключенческий фильм, боевик или триллер
Общее
Уникальный идентификатор : 26054293449783913810786330739643366191 (0x1399DFD84044982BF4B1CD3C6E71BB2F)
Полное имя : H:\UHD\Миссия невыполнима.1996.UHD.BluRay.Remux.2160p.mkv
Формат : Matroska
Версия формата : Version 4
Размер файла : 64,1 Гбайт
Продолжительность : 1 ч. 50 м.
Режим общего битрейта : Переменный
Общий поток : 83,2 Мбит/сек
Дата кодирования : UTC 2018-12-28 19:31:55
Программа кодирования : mkvmerge v29.0.0 ('Like It Or Not') 64-bit
Библиотека кодирования : libebml v1.3.6 + libmatroska v1.4.9
Attachments : poster.jpg

Видео
Идентификатор : 1
Формат : HEVC
Формат/Информация : High Efficiency Video Coding
Коммерческое название : HDR10
Профиль формата : Main [email protected]@High
Идентификатор кодека : V_MPEGH/ISO/HEVC
Продолжительность : 1 ч. 50 м.
Битрейт : 56,5 Мбит/сек
Ширина : 3840 пикселей
Высота : 2160 пикселей
Соотношение сторон : 16:9
Режим частоты кадров : Постоянный
Частота кадров : 23,976 (24000/1001) кадра/сек
Цветовое пространство : YUV
Субдискретизация насыщенности : 4:2:0 (Type 2)
Битовая глубина : 10 бит
Бит/(Пиксели*Кадры) : 0.284
Размер потока : 43,5 Гбайт (68%)
Default : Да
Forced : Нет
Цветовой диапазон : Limited
Основные цвета : BT.2020
Характеристики трансфера : PQ
Коэффициенты матрицы : BT.2020 non-constant
MasteringDisplay_ColorPrimaries : Display P3
MasteringDisplay_Luminance : min: 0.0001 cd/m2, max: 1000 cd/m2

Аудио #1
Идентификатор : 2
Формат : AC-3
Формат/Информация : Audio Coding 3
Коммерческое название : Dolby Digital
Идентификатор кодека : A_AC3
Продолжительность : 1 ч. 50 м.
Вид битрейта : Постоянный
Битрейт : 640 Кбит/сек
Каналы : 6 каналов
Channel layout : L R C LFE Ls Rs
Частота : 48,0 КГц
Частота кадров : 31,250 кадров/сек (1536 SPF)
Битовая глубина : 16 бит
Метод сжатия : С потерями
Размер потока : 505 Мбайт (1%)
Заголовок : MVO, UHD Blu-Ray
Язык : Russian
ServiceKind/String : Complete Main
Default : Да
Forced : Нет

Аудио #2
Идентификатор : 3
Формат : DTS XLL
Формат/Информация : Digital Theater Systems
Коммерческое название : DTS-HD Master Audio
Идентификатор кодека : A_DTS
Продолжительность : 1 ч. 50 м.
Вид битрейта : Переменный
Битрейт : 3789 Кбит/сек
Каналы : 6 каналов
Channel layout : C L R Ls Rs LFE
Частота : 48,0 КГц
Частота кадров : 93,750 кадра/сек (512 SPF)
Битовая глубина : 24 бит
Метод сжатия : Без потерь
Размер потока : 2,92 Гбайт (5%)
Заголовок : MVO, Позитив-Мультимедиа
Язык : Russian
Default : Нет
Forced : Нет

Аудио #3
Идентификатор : 4
Формат : AC-3
Формат/Информация : Audio Coding 3
Коммерческое название : Dolby Digital
Идентификатор кодека : A_AC3
Продолжительность : 1 ч. 50 м.
Вид битрейта : Постоянный
Битрейт : 384 Кбит/сек
Каналы : 6 каналов
Channel layout : L R C LFE Ls Rs
Частота : 48,0 КГц
Частота кадров : 31,250 кадров/сек (1536 SPF)
Битовая глубина : 16 бит
Метод сжатия : С потерями
Размер потока : 303 Мбайт (0%)
Заголовок : MVO, Киномания
Язык : Russian
ServiceKind/String : Complete Main
Default : Нет
Forced : Нет

Аудио #4
Идентификатор : 5
Формат : AC-3
Формат/Информация : Audio Coding 3
Коммерческое название : Dolby Digital
Идентификатор кодека : A_AC3
Продолжительность : 1 ч. 50 м.
Вид битрейта : Постоянный
Битрейт : 448 Кбит/сек
Каналы : 6 каналов
Channel layout : L R C LFE Ls Rs
Частота : 48,0 КГц
Частота кадров : 31,250 кадров/сек (1536 SPF)
Битовая глубина : 16 бит
Метод сжатия : С потерями
Размер потока : 353 Мбайт (1%)
Заголовок : MVO, НТВ
Язык : Russian
ServiceKind/String : Complete Main
Default : Нет
Forced : Нет

Аудио #5
Идентификатор : 6
Формат : AC-3
Формат/Информация : Audio Coding 3
Коммерческое название : Dolby Digital
Идентификатор кодека : A_AC3
Продолжительность : 1 ч. 50 м.
Вид битрейта : Постоянный
Битрейт : 384 Кбит/сек
Каналы : 6 каналов
Channel layout : L R C LFE Ls Rs
Частота : 48,0 КГц
Частота кадров : 31,250 кадров/сек (1536 SPF)
Битовая глубина : 16 бит
Метод сжатия : С потерями
Размер потока : 303 Мбайт (0%)
Заголовок : MVO, с DVD издания Astra
Язык : Russian
ServiceKind/String : Complete Main
Default : Нет
Forced : Нет

Аудио #6
Идентификатор : 7
Формат : AC-3
Формат/Информация : Audio Coding 3
Коммерческое название : Dolby Digital
Идентификатор кодека : A_AC3
Продолжительность : 1 ч. 50 м.
Вид битрейта : Постоянный
Битрейт : 224 Кбит/сек
Каналы : 2 канала
Channel layout : L R
Частота : 48,0 КГц
Частота кадров : 31,250 кадров/сек (1536 SPF)
Битовая глубина : 16 бит
Метод сжатия : С потерями
Размер потока : 177 Мбайт (0%)
Заголовок : MVO, ОРТ
Язык : Russian
ServiceKind/String : Complete Main
Default : Нет
Forced : Нет

Аудио #7
Идентификатор : 8
Формат : AC-3
Формат/Информация : Audio Coding 3
Коммерческое название : Dolby Digital
Идентификатор кодека : A_AC3
Продолжительность : 1 ч. 50 м.
Вид битрейта : Постоянный
Битрейт : 224 Кбит/сек
Каналы : 2 канала
Channel layout : L R
Частота : 48,0 КГц
Частота кадров : 31,250 кадров/сек (1536 SPF)
Битовая глубина : 16 бит
Метод сжатия : С потерями
Размер потока : 177 Мбайт (0%)
Заголовок : MVO, СТС
Язык : Russian
ServiceKind/String : Complete Main
Default : Нет
Forced : Нет

Аудио #8
Идентификатор : 9
Формат : DTS XLL
Формат/Информация : Digital Theater Systems
Коммерческое название : DTS-HD Master Audio
Идентификатор кодека : A_DTS
Продолжительность : 1 ч. 50 м.
Вид битрейта : Переменный
Битрейт : 3784 Кбит/сек
Каналы : 6 каналов
Channel layout : C L R Ls Rs LFE
Частота : 48,0 КГц
Частота кадров : 93,750 кадра/сек (512 SPF)
Битовая глубина : 24 бит
Метод сжатия : Без потерь
Размер потока : 2,91 Гбайт (5%)
Заголовок : DVO, П. Гланц и И. Королёва
Язык : Russian
Default : Нет
Forced : Нет

Аудио #9
Идентификатор : 10
Формат : AC-3
Формат/Информация : Audio Coding 3
Коммерческое название : Dolby Digital
Идентификатор кодека : A_AC3
Продолжительность : 1 ч. 50 м.
Вид битрейта : Постоянный
Битрейт : 192 Кбит/сек
Каналы : 2 канала
Channel layout : L R
Частота : 48,0 КГц
Частота кадров : 31,250 кадров/сек (1536 SPF)
Битовая глубина : 16 бит
Метод сжатия : С потерями
Размер потока : 151 Мбайт (0%)
Заголовок : DVO, Премьер Видео
Язык : Russian
ServiceKind/String : Complete Main
Default : Нет
Forced : Нет

Аудио #10
Идентификатор : 11
Формат : DTS XLL
Формат/Информация : Digital Theater Systems
Коммерческое название : DTS-HD Master Audio
Идентификатор кодека : A_DTS
Продолжительность : 1 ч. 50 м.
Вид битрейта : Переменный
Битрейт : 3781 Кбит/сек
Каналы : 6 каналов
Channel layout : C L R Ls Rs LFE
Частота : 48,0 КГц
Частота кадров : 93,750 кадра/сек (512 SPF)
Битовая глубина : 24 бит
Метод сжатия : Без потерь
Размер потока : 2,91 Гбайт (5%)
Заголовок : А. Гаврилов
Язык : Russian
Default : Нет
Forced : Нет

Аудио #11
Идентификатор : 12
Формат : DTS XLL
Формат/Информация : Digital Theater Systems
Коммерческое название : DTS-HD Master Audio
Идентификатор кодека : A_DTS
Продолжительность : 1 ч. 50 м.
Вид битрейта : Переменный
Битрейт : 3788 Кбит/сек
Каналы : 6 каналов
Channel layout : C L R Ls Rs LFE
Частота : 48,0 КГц
Частота кадров : 93,750 кадра/сек (512 SPF)
Битовая глубина : 24 бит
Метод сжатия : Без потерь
Размер потока : 2,92 Гбайт (5%)
Заголовок : Ю. Живов
Язык : Russian
Default : Нет
Forced : Нет

Аудио #12
Идентификатор : 13
Формат : DTS XLL
Формат/Информация : Digital Theater Systems
Коммерческое название : DTS-HD Master Audio
Идентификатор кодека : A_DTS
Продолжительность : 1 ч. 50 м.
Вид битрейта : Переменный
Битрейт : 3784 Кбит/сек
Каналы : 6 каналов
Channel layout : C L R Ls Rs LFE
Частота : 48,0 КГц
Частота кадров : 93,750 кадра/сек (512 SPF)
Битовая глубина : 24 бит
Метод сжатия : Без потерь
Размер потока : 2,91 Гбайт (5%)
Заголовок : С. Визгунов #1
Язык : Russian
Default : Нет
Forced : Нет

Аудио #13
Идентификатор : 14
Формат : AC-3
Формат/Информация : Audio Coding 3
Коммерческое название : Dolby Digital
Идентификатор кодека : A_AC3
Продолжительность : 1 ч. 50 м.
Вид битрейта : Постоянный
Битрейт : 192 Кбит/сек
Каналы : 2 канала
Channel layout : L R
Частота : 48,0 КГц
Частота кадров : 31,250 кадров/сек (1536 SPF)
Битовая глубина : 16 бит
Метод сжатия : С потерями
Размер потока : 151 Мбайт (0%)
Заголовок : С. Визгунов (ранний с VHS) #2
Язык : Russian
ServiceKind/String : Complete Main
Default : Нет
Forced : Нет

Аудио #14
Идентификатор : 15
Формат : AC-3
Формат/Информация : Audio Coding 3
Коммерческое название : Dolby Digital
Идентификатор кодека : A_AC3
Продолжительность : 1 ч. 50 м.
Вид битрейта : Постоянный
Битрейт : 192 Кбит/сек
Каналы : 2 канала
Channel layout : L R
Частота : 48,0 КГц
Частота кадров : 31,250 кадров/сек (1536 SPF)
Битовая глубина : 16 бит
Метод сжатия : С потерями
Размер потока : 151 Мбайт (0%)
Заголовок : С. Визгунов (с VHS) #3
Язык : Russian
ServiceKind/String : Complete Main
Default : Нет
Forced : Нет

Аудио #15
Идентификатор : 16
Формат : AC-3
Формат/Информация : Audio Coding 3
Коммерческое название : Dolby Digital
Идентификатор кодека : A_AC3
Продолжительность : 1 ч. 50 м.
Вид битрейта : Постоянный
Битрейт : 384 Кбит/сек
Каналы : 6 каналов
Channel layout : L R C LFE Ls Rs
Частота : 48,0 КГц
Частота кадров : 31,250 кадров/сек (1536 SPF)
Битовая глубина : 16 бит
Метод сжатия : С потерями
Размер потока : 303 Мбайт (0%)
Заголовок : М. Латышев
Язык : Russian
ServiceKind/String : Complete Main
Default : Нет
Forced : Нет

Аудио #16
Идентификатор : 17
Формат : AC-3
Формат/Информация : Audio Coding 3
Коммерческое название : Dolby Digital
Идентификатор кодека : A_AC3
Продолжительность : 1 ч. 50 м.
Вид битрейта : Постоянный
Битрейт : 224 Кбит/сек
Каналы : 2 канала
Channel layout : L R
Частота : 48,0 КГц
Частота кадров : 31,250 кадров/сек (1536 SPF)
Битовая глубина : 16 бит
Метод сжатия : С потерями
Размер потока : 177 Мбайт (0%)
Заголовок : С. Кузнецов
Язык : Russian
ServiceKind/String : Complete Main
Default : Нет
Forced : Нет

Аудио #17
Идентификатор : 18
Формат : AC-3
Формат/Информация : Audio Coding 3
Коммерческое название : Dolby Digital
Идентификатор кодека : A_AC3
Продолжительность : 1 ч. 50 м.
Вид битрейта : Постоянный
Битрейт : 192 Кбит/сек
Каналы : 2 канала
Channel layout : L R
Частота : 48,0 КГц
Частота кадров : 31,250 кадров/сек (1536 SPF)
Битовая глубина : 16 бит
Метод сжатия : С потерями
Размер потока : 151 Мбайт (0%)
Заголовок : Диктор CDV
Язык : Russian
ServiceKind/String : Complete Main
Default : Нет
Forced : Нет

Аудио #18
Идентификатор : 19
Формат : MLP FBA
Формат/Информация : Meridian Lossless Packing FBA
Коммерческое название : Dolby TrueHD
Идентификатор кодека : A_TRUEHD
Продолжительность : 1 ч. 50 м.
Вид битрейта : Переменный
Битрейт : 3365 Кбит/сек
Максимальный битрейт : 4890 Кбит/сек
Каналы : 6 каналов
Channel layout : L R C LFE Ls Rs
Частота : 48,0 КГц
Частота кадров : 1200,000 кадров/сек (40 SPF)
Метод сжатия : Без потерь
Размер потока : 2,59 Гбайт (4%)
Язык : English
Default : Нет
Forced : Нет

Аудио #19
Идентификатор : 20
Формат : AC-3
Формат/Информация : Audio Coding 3
Коммерческое название : Dolby Digital
Идентификатор кодека : A_AC3
Продолжительность : 1 ч. 50 м.
Вид битрейта : Постоянный
Битрейт : 640 Кбит/сек
Каналы : 6 каналов
Channel layout : L R C LFE Ls Rs
Частота : 48,0 КГц
Частота кадров : 31,250 кадров/сек (1536 SPF)
Битовая глубина : 16 бит
Метод сжатия : С потерями
Размер потока : 505 Мбайт (1%)
Язык : English
ServiceKind/String : Complete Main
Default : Нет
Forced : Нет

Текст #1
Идентификатор : 21
Формат : UTF-8
Идентификатор кодека : S_TEXT/UTF8
Идентификатор кодека/Информация : UTF-8 Plain Text
Продолжительность : 1 ч. 49 м.
Битрейт : 64 бит/сек
ElementCount : 1000
Размер потока : 51,7 Кбайт (0%)
Заголовок : UHD Blu-Ray
Язык : Russian
Default : Нет
Forced : Нет

Текст #2
Идентификатор : 22
Формат : UTF-8
Идентификатор кодека : S_TEXT/UTF8
Идентификатор кодека/Информация : UTF-8 Plain Text
Продолжительность : 1 ч. 45 м.
Битрейт : 64 бит/сек
ElementCount : 1075
Размер потока : 50,0 Кбайт (0%)
Заголовок : Позитив-Мультимедиа
Язык : Russian
Default : Нет
Forced : Нет

Текст #3
Идентификатор : 23
Формат : UTF-8
Идентификатор кодека : S_TEXT/UTF8
Идентификатор кодека/Информация : UTF-8 Plain Text
Продолжительность : 1 м. 30 с.
Битрейт : 31 бит/сек
ElementCount : 20
Размер потока : 358 байт (0%)
Заголовок : forced
Язык : English
Default : Нет
Forced : Нет

Текст #4
Идентификатор : 24
Формат : UTF-8
Идентификатор кодека : S_TEXT/UTF8
Идентификатор кодека/Информация : UTF-8 Plain Text
Продолжительность : 1 ч. 45 м.
Битрейт : 41 бит/сек
ElementCount : 952
Размер потока : 31,8 Кбайт (0%)
Заголовок : full
Язык : English
Default : Нет
Forced : Нет

Текст #5
Идентификатор : 25
Формат : UTF-8
Идентификатор кодека : S_TEXT/UTF8
Идентификатор кодека/Информация : UTF-8 Plain Text
Продолжительность : 1 ч. 45 м.
Битрейт : 44 бит/сек
ElementCount : 1103
Размер потока : 34,8 Кбайт (0%)
Заголовок : SDH
Язык : English
Default : Нет
Forced : Нет

Меню
00:00:00.000 : en:Kiev
00:03:01.223 : en:Good Morning, Mr. Phelps
00:10:44.727 : en:Golitsyn
00:26:43.811 : en:Mole Hunt
00:32:21.481 : en:Job 3:14
00:39:50.388 : en:Max
00:49:39.351 : en:Disavowed
00:55:45.801 : en:The Black Vault
01:12:25.925 : en:NOC List
01:18:34.668 : en:No More Secrets
01:28:14.539 : en:Masquerade
01:38:06.881 : en:Red Light Green Light
01:44:02.987 : en:"Aruba, Perhaps?"
freetor.icu



Скачать Миссия: невыполнима через торрент https://c.radikal.ru/c32/1806/d1/cabbc0bb8bf4.png Скачать, смотреть онлайн Миссия: невыполнима бесплантно в хорошем качестве Описание: Агент ЦРУ Итан Хант оказался в положении подозреваемого в предательстве «крота», из-за которого погибли несколько членов его ... 10 10 4
Торрент: Зарегистрирован [2018-12-31 02:49] · скачан: 11 раз
Статус: √ проверено
Размер: 64.08 GB
Как cкачать? Как скачать Миссия: невыполнима через торрент | UTorrent

% Раздел Тема Автор DL S | L
Ultra HD (UHD: 2K, 4K, 8K) — видео сверхвысокой чёткости [ 62.91 GB ] Миссия невыполнима 2 / Mission: Impossible II [2000 UHD BDRemux 2160p] DUB + 5xMVO + 2xDVO + 4xAVO sheker187 Скачать
1 | 0
Ultra HD (UHD: 2K, 4K, 8K) — видео сверхвысокой чёткости [ 38.06 GB ] Миссия: невыполнима 3 / Mission: Impossible III [2006 UHD BDRip 2160p] DUB + 2xDVO + 2xMVO + 2xAVO sheker187 Скачать
1 | 0
Ultra HD (UHD: 2K, 4K, 8K) — видео сверхвысокой чёткости [ 41.11 GB ] Миссия: невыполнима 2 / Mission: Impossible II [2000 UHD BDRip 2160p] 2xDVO+2xAVO+3xMVO+MVO bober100 Скачать
1 | 0

28-11-2019 20:33  

Отключить всю рекламу на сайте

31-12-2018 02:54 Миссия: невыполнима Скачать торрент  

Релиз обновлен!
Добавлены дополнительные озвучки.freetor.icu



    Дорогой пользователь! Огромная просьба, поблагодарите релизера, оцените раздачу и оставьте свои комментарий, если Вы скачали Миссия: невыполнима через торрент бесплатно!
    Комментировать посты могут только пользователи прошедшие не сложную регистрацию
    Показать сообщения:    

    Миссия: невыполнима через торрент
    Скачать бесплатно Миссия: невыполнима
    Миссия: невыполнима скачать торрент
    Миссия: невыполнима смотреть онлайн
    Cкачать фильм Миссия: невыполнима бесплатно
    Миссия: невыполнима скачать торрент в хорошем качестве
    Миссия: невыполнима смотреть онлайн бесплатно в хорошем качестве


    Вы не можете начинать темы
    Вы не можете отвечать на сообщения
    Вы не можете редактировать свои сообщения
    Вы не можете удалять свои сообщения
    Вы не можете голосовать в опросах
    Вы не можете прикреплять файлы к сообщениям
    Вы можете скачивать файлы