Всегда рабочее зеркало без VPN и Proxy просто перед .vidak.icu напиши любое слово или цифру, Пример http://2okx.vidak.icu

MVO

Лицензия

1 сезон

1

1 сезон

iTunes

1 сезон

13

1 сезон

Deluxe

pack

Рекомендуем

Пиратка

30

ВАЖНО

RePack

MK11

RePack

jed

RePack

fifa19

RePack

RDR2

RePack

NEED FOR SPEED™ PAYBACK

Кинопоиск HD

6 сезон

 Острые козырьки 6 сезон

Все сериалы

все сериалы на PB.wtf

RePack

FAR CRY 5

Anonymous, нам критически не хватает 2100 руб. на оплату серверов и переферии за МАЙ, помоги нам пожалуйста, вся надежда только на тебя. В благодарность мы отключим тебе всю рекламу на сайте!

×
  
Magnet ссылка

Будка поцелуев / The Kissing Booth (Винс Марселло) [2018, мелодрама, комедия, UHD WEBRip 2160p] MVO [HDrezka Studio] freetor.icu

Будка поцелуев через торрент freetor.icu

Размер: 22.16 GB | Добавлен: 3 года 11 мес. назад | Торрент скачан:34 раза
Смотреть онлайн Будка поцелуев | Скачать    Ребята, помогите собрать деньги на оплату серверов!!!

29-06-2018 19:32 Будка поцелуев Скачать торрент  

Будка поцелуев / The Kissing Booth
Год выпуска: 2018
Страна: Великобритания
Жанр: мелодрама, комедия
Продолжительность: 01:45:03
Перевод: Профессиональный (многоголосый) | HDRezka studio
Субтитры: английские и др.

Режиссер: Винс Марселло

rating

В ролях:

Джои Кинг, Джейкоб Элорди, Молли Рингуолд, Джоэл Кортни, Фрэнсис Шолто-Дуглас, Меган Янг, Нэйтан Линн, Робби Такер, Джессика Саттон, Морн Виссер

Описание:

Старшеклассница Эль — общительная, милая, но еще не испытавшая прелести поцелуев девушка. Ной — старший брат ее лучшего друга — дерзкий и ветреный, разбивший не одно девичье сердце. Решив однажды поучаствовать в «Будке поцелуев» на осеннем карнавале, Эль даже представить не могла, что подарит свой первый поцелуй Ною, и её жизнь изменится до неузнаваемости.

Качество: UHD WEBRip 2160p
Формат: MKV

Видео: MPEG-4 AVC, [email protected], 8 bits, 29.5 Mбит/с, 3840x1744, 23.976 кадр/с
Аудио#1: Русский (AC3, 2 ch, 384 Кбит/с) / Профессиональный многоголосный (HDrezka Studio)
Аудио#2: Английский (AC3, 6 ch, 384 Кбит/с)
скриншот   скриншот   скриншот   скриншот   скриншот  

General
Unique ID : 168142737809567851130894986624856763603 (0x7E7F1D05AD3D763E826405CCFAF82CD3)
Complete name : C:UsersPublicVideosSample VideosFilmyThe.Kissing.Booth.2018.2160p.Netflix.WEBRip.MediaClub.mkv
Format : Matroska
Format version : Version 4 / Version 2
File size : 22.2 GiB
Duration : 1 h 45 min
Overall bit rate : 30.2 Mb/s
Encoded date : UTC 2018-06-29 17:59:44
Writing application : mkvmerge v19.0.0 ('Brave Captain') 64-bit
Writing library : libebml v1.3.5 + libmatroska v1.4.8
Cover : Yes
Attachments : cover.jpg

Video
ID : 1
Format : AVC
Format/Info : Advanced Video Codec
Format profile : [email protected]
Format settings : CABAC / 5 Ref Frames
Format settings, CABAC : Yes
Format settings, RefFrames : 5 frames
Codec ID : V_MPEG4/ISO/AVC
Duration : 1 h 44 min
Bit rate : 29.5 Mb/s
Width : 3 840 pixels
Height : 1 744 pixels
Display aspect ratio : 2.2:1
Frame rate mode : Constant
Frame rate : 23.976 (24000/1001) FPS
Color space : YUV
Chroma subsampling : 4:2:0
Bit depth : 8 bits
Scan type : Progressive
Bits/(Pixel*Frame) : 0.184
Stream size : 21.6 GiB (97%)
Title : WEBRip.2160p.x264 by Silverok
Writing library : x264 core 155 r2901 7d0ff22
Encoding settings : cabac=1 / ref=5 / deblock=1:-3:-3 / analyse=0x3:0x133 / me=umh / subme=10 / psy=1 / psy_rd=1.00:0.00 / mixed_ref=1 / me_range=48 / chroma_me=1 / trellis=2 / 8x8dct=1 / cqm=0 / deadzone=21,11 / fast_pskip=1 / chroma_qp_offset=-2 / threads=42 / lookahead_threads=7 / sliced_threads=0 / nr=0 / decimate=0 / interlaced=0 / bluray_compat=0 / constrained_intra=0 / bframes=8 / b_pyramid=2 / b_adapt=2 / b_bias=0 / direct=3 / weightb=1 / open_gop=0 / weightp=2 / keyint=250 / keyint_min=23 / scenecut=40 / intra_refresh=0 / rc=crf / mbtree=0 / crf=18.0 / qcomp=0.70 / qpmin=0 / qpmax=69 / qpstep=4 / ip_ratio=1.40 / pb_ratio=1.30 / aq=3:0.70
Default : Yes
Forced : No

Audio #1
ID : 2
Format : AC-3
Format/Info : Audio Coding 3
Codec ID : A_AC3
Duration : 1 h 45 min
Bit rate mode : Constant
Bit rate : 384 kb/s
Channel(s) : 2 channels
Channel positions : Front: L R
Sampling rate : 48.0 kHz
Frame rate : 31.250 FPS (1536 SPF)
Bit depth : 16 bits
Compression mode : Lossy
Stream size : 289 MiB (1%)
Title : Профессиональный многоголосный (HDrezka Studio)
Language : Russian
Service kind : Complete Main
Default : Yes
Forced : No

Audio #2
ID : 3
Format : AC-3
Format/Info : Audio Coding 3
Codec ID : A_AC3
Duration : 1 h 45 min
Bit rate mode : Constant
Bit rate : 384 kb/s
Channel(s) : 6 channels
Channel positions : Front: L C R, Side: L R, LFE
Sampling rate : 48.0 kHz
Frame rate : 31.250 FPS (1536 SPF)
Bit depth : 16 bits
Compression mode : Lossy
Stream size : 289 MiB (1%)
Language : English
Service kind : Complete Main
Default : No
Forced : No

Text #1
ID : 4
Format : UTF-8
Codec ID : S_TEXT/UTF8
Codec ID/Info : UTF-8 Plain Text
Duration : 1 h 43 min
Bit rate : 72 b/s
Count of elements : 1725
Stream size : 55.1 KiB (0%)
Title : SDH
Language : English
Default : Yes
Forced : No

Text #2
ID : 5
Format : UTF-8
Codec ID : S_TEXT/UTF8
Codec ID/Info : UTF-8 Plain Text
Duration : 1 h 43 min
Bit rate : 144 b/s
Count of elements : 1675
Stream size : 110 KiB (0%)
Language : Bulgarian
Default : No
Forced : No

Text #3
ID : 6
Format : UTF-8
Codec ID : S_TEXT/UTF8
Codec ID/Info : UTF-8 Plain Text
Duration : 1 h 44 min
Bit rate : 54 b/s
Count of elements : 1451
Stream size : 41.5 KiB (0%)
Language : Danish
Default : No
Forced : No

Text #4
ID : 7
Format : UTF-8
Codec ID : S_TEXT/UTF8
Codec ID/Info : UTF-8 Plain Text
Duration : 1 h 43 min
Bit rate : 65 b/s
Count of elements : 1397
Stream size : 49.6 KiB (0%)
Language : German
Default : No
Forced : No

Text #5
ID : 8
Format : UTF-8
Codec ID : S_TEXT/UTF8
Codec ID/Info : UTF-8 Plain Text
Duration : 1 h 43 min
Bit rate : 92 b/s
Count of elements : 1407
Stream size : 70.2 KiB (0%)
Language : Greek
Default : No
Forced : No

Text #6
ID : 9
Format : UTF-8
Codec ID : S_TEXT/UTF8
Codec ID/Info : UTF-8 Plain Text
Duration : 1 h 43 min
Bit rate : 55 b/s
Count of elements : 1434
Stream size : 42.0 KiB (0%)
Language : Spanish
Default : No
Forced : No

Text #7
ID : 10
Format : UTF-8
Codec ID : S_TEXT/UTF8
Codec ID/Info : UTF-8 Plain Text
Duration : 1 h 44 min
Bit rate : 64 b/s
Count of elements : 1479
Stream size : 49.7 KiB (0%)
Language : Spanish
Default : No
Forced : No

Text #8
ID : 11
Format : UTF-8
Codec ID : S_TEXT/UTF8
Codec ID/Info : UTF-8 Plain Text
Duration : 1 h 43 min
Bit rate : 64 b/s
Count of elements : 1455
Stream size : 49.1 KiB (0%)
Language : Finnish
Default : No
Forced : No

Text #9
ID : 12
Format : UTF-8
Codec ID : S_TEXT/UTF8
Codec ID/Info : UTF-8 Plain Text
Duration : 1 h 43 min
Bit rate : 59 b/s
Count of elements : 1395
Stream size : 44.9 KiB (0%)
Language : French
Default : No
Forced : No

Text #10
ID : 13
Format : UTF-8
Codec ID : S_TEXT/UTF8
Codec ID/Info : UTF-8 Plain Text
Duration : 1 h 44 min
Bit rate : 78 b/s
Count of elements : 1492
Stream size : 60.3 KiB (0%)
Language : Hebrew
Default : No
Forced : No

Text #11
ID : 14
Format : UTF-8
Codec ID : S_TEXT/UTF8
Codec ID/Info : UTF-8 Plain Text
Duration : 1 h 43 min
Bit rate : 56 b/s
Count of elements : 1411
Stream size : 42.8 KiB (0%)
Language : Italian
Default : No
Forced : No

Text #12
ID : 15
Format : UTF-8
Codec ID : S_TEXT/UTF8
Codec ID/Info : UTF-8 Plain Text
Duration : 1 h 44 min
Bit rate : 56 b/s
Count of elements : 1638
Stream size : 43.1 KiB (0%)
Language : Japanese
Default : No
Forced : No

Text #13
ID : 16
Format : UTF-8
Codec ID : S_TEXT/UTF8
Codec ID/Info : UTF-8 Plain Text
Duration : 1 h 44 min
Bit rate : 54 b/s
Count of elements : 1482
Stream size : 41.9 KiB (0%)
Language : Korean
Default : No
Forced : No

Text #14
ID : 17
Format : UTF-8
Codec ID : S_TEXT/UTF8
Codec ID/Info : UTF-8 Plain Text
Duration : 1 h 43 min
Bit rate : 46 b/s
Count of elements : 1225
Stream size : 35.3 KiB (0%)
Language : Dutch
Default : No
Forced : No

Text #15
ID : 18
Format : UTF-8
Codec ID : S_TEXT/UTF8
Codec ID/Info : UTF-8 Plain Text
Duration : 1 h 43 min
Bit rate : 51 b/s
Count of elements : 1470
Stream size : 39.3 KiB (0%)
Language : Polish
Default : No
Forced : No

Text #16
ID : 19
Format : UTF-8
Codec ID : S_TEXT/UTF8
Codec ID/Info : UTF-8 Plain Text
Duration : 1 h 43 min
Bit rate : 53 b/s
Count of elements : 1481
Stream size : 40.8 KiB (0%)
Language : Portuguese
Default : No
Forced : No

Text #17
ID : 20
Format : UTF-8
Codec ID : S_TEXT/UTF8
Codec ID/Info : UTF-8 Plain Text
Duration : 1 h 43 min
Bit rate : 73 b/s
Count of elements : 1485
Stream size : 55.9 KiB (0%)
Language : Portuguese
Default : No
Forced : No

Text #18
ID : 21
Format : UTF-8
Codec ID : S_TEXT/UTF8
Codec ID/Info : UTF-8 Plain Text
Duration : 1 h 44 min
Bit rate : 56 b/s
Count of elements : 1494
Stream size : 43.5 KiB (0%)
Language : Romanian
Default : No
Forced : No

Text #19
ID : 22
Format : UTF-8
Codec ID : S_TEXT/UTF8
Codec ID/Info : UTF-8 Plain Text
Duration : 1 h 44 min
Bit rate : 64 b/s
Count of elements : 1471
Stream size : 49.1 KiB (0%)
Language : Swedish
Default : No
Forced : No

Text #20
ID : 23
Format : UTF-8
Codec ID : S_TEXT/UTF8
Codec ID/Info : UTF-8 Plain Text
Duration : 1 h 43 min
Bit rate : 130 b/s
Count of elements : 1494
Stream size : 98.8 KiB (0%)
Language : Thai
Default : No
Forced : No

Text #21
ID : 24
Format : UTF-8
Codec ID : S_TEXT/UTF8
Codec ID/Info : UTF-8 Plain Text
Duration : 1 h 43 min
Bit rate : 71 b/s
Count of elements : 1483
Stream size : 53.9 KiB (0%)
Language : Turkish
Default : No
Forced : No

Text #22
ID : 25
Format : UTF-8
Codec ID : S_TEXT/UTF8
Codec ID/Info : UTF-8 Plain Text
Duration : 1 h 43 min
Bit rate : 42 b/s
Count of elements : 1485
Stream size : 31.9 KiB (0%)
Language : Chinese
Default : No
Forced : No

Text #23
ID : 26
Format : UTF-8
Codec ID : S_TEXT/UTF8
Codec ID/Info : UTF-8 Plain Text
Duration : 1 h 43 min
Bit rate : 47 b/s
Count of elements : 1467
Stream size : 36.0 KiB (0%)
Language : Chinese
Default : No
Forced : No

freetor.icu



Скачать Будка поцелуев через торрент http://i104.fastpic.ru/big/2018/0517/1d/a53ba859e05964d663bb65622638721d.jpg Скачать, смотреть онлайн Будка поцелуев бесплантно в хорошем качестве Описание: Старшеклассница Эль — общительная, милая, но еще не испытавшая прелести поцелуев девушка. Ной — старший брат ее лучшего друга — ... 10 10 3
Info! Серебряная раздача, засчитывается только 50% скачанного.
Торрент: Зарегистрирован [2018-06-29 19:32] · скачан: 34 раз
Статус: √ проверено
Размер: 22.16 GB
Как cкачать? Как скачать Будка поцелуев через торрент | UTorrent

% Раздел Тема Автор DL S | L
Фильмы (WEB-DL 720p, 1080p) [ 4.86 GB ] Будка поцелуев 3 / The Kissing Booth 3 [2021 WEB-DL 1080p] killermax2013 Скачать
19 | 0
Фильмы 2019-2020 [DVDrip, WEB-DLRip, HDrip] (DUB, MVO) [ 1.46 GB ] Будка поцелуев 2 / The Kissing Booth 2 [2020 Мело WEB-DLRip] DUB [Пифагор / Netflix] bober100 Скачать
1 | 0
Фильмы 2019-2020 [DVDrip, WEB-DLRip, HDrip] (DUB, MVO) [ 2.18 GB ] Будка поцелуев 2 / The Kissing Booth 2 [2020 Мело WEB-DLRip] DUB [Пифагор / Netflix] bober100 Скачать
1 | 0
Фильмы (WEB-DL 720p, 1080p) [ 6.68 GB ] Будка поцелуев 2 / The Kissing Booth 2 [2020 WEB-DL 1080p] killermax2013 Скачать
1 | 0
Фильмы (WEB-DL 720p, 1080p) [ 3.76 GB ] Будка поцелуев / The Kissing Booth [2018 WEB-DL 1080p] MVO [HDrezka Studio] bober100 Скачать
1 | 0
Фильмы (WEB-DL 720p, 1080p) [ 2.67 GB ] Будка поцелуев / The Kissing Booth [2018 WEB-DL 720p] MVO [HDrezka Studio] bober100 Скачать
1 | 0

28-11-2019 20:33  

Отключить всю рекламу на сайте

    Дорогой пользователь! Огромная просьба, поблагодарите релизера, оцените раздачу и оставьте свои комментарий, если Вы скачали Будка поцелуев через торрент бесплатно!
    Комментировать посты могут только пользователи прошедшие не сложную регистрацию
    Показать сообщения:    

    Будка поцелуев через торрент
    Скачать бесплатно Будка поцелуев
    Будка поцелуев скачать торрент
    Будка поцелуев смотреть онлайн
    Cкачать фильм Будка поцелуев бесплатно
    Будка поцелуев скачать торрент в хорошем качестве
    Будка поцелуев смотреть онлайн бесплатно в хорошем качестве


    Вы не можете начинать темы
    Вы не можете отвечать на сообщения
    Вы не можете редактировать свои сообщения
    Вы не можете удалять свои сообщения
    Вы не можете голосовать в опросах
    Вы не можете прикреплять файлы к сообщениям
    Вы можете скачивать файлы