>

5.6

iTunes

6.1

MVO

5.7

MVO

1

7.4

1 сезон

6.8

iTunes

7.2

1 сезон

13

6.7

1 сезон

8.3

RePack

30

Deluxe

pack

9.9

Лицензия

ВАЖНО

ИГРА 18+

pack

7.3

RePack

MK11

7.7

RePack

jed

7.8

RePack

fifa19

8.5

RePack

RDR2

RePack

NEED FOR SPEED™ PAYBACK

4 сезон

9 сезон

Бесстыжие 9 сезон

Все сериалы

все сериалы на PB.wtf

RePack

FAR CRY 5

Anonymous, добрый день, мы катастрофически не успеваем собрать деньги на оплату серверов, помогите нам пожалуйста 5,10,15р., для нас важна любая помощь . В качестве благодарности мы отключим Вам всю рекламу на сайте (укажите свой ник в строку Ваше имя)!

×
  
Magnet ссылка

Гашиш / Charas (Рамананд Сагар) [1976 г., Боевик, триллер, DVDRip, Любительский (двухголосый)] freetor.icu

Гашиш через торрент freetor.icu

Размер: 1.42 GB | Добавлен: 3 года 2 мес. назад | Торрент скачан:6 раз
Смотреть онлайн Гашиш | Скачать    Ребята, помогите собрать деньги на оплату серверов!!!

24-06-2018 12:25 Гашиш Скачать торрент  

Гашиш / Charas
Год выпуска: 1976
Страна: Индия
Жанр: Боевик, триллер
Продолжительность: 02:37:03
Перевод: Любительский (двухголосый) [raaj (joy) и Vasantsena]
Субтитры: Русские (только на песни)

Режиссер: Рамананд Сагар

rating

В ролях: Дхармендра, Хема Малини, Аруна Ирани, Амджад Кхан, Аджит, Асрани, Суджит Кумар, Кешто Мукхерджи

Описание: Враги сожгли родную хату, отца убили, родную сестру продали в притон. Да ещё управляющий Каличаран (Аджит) присвоил всё имущество. Что остаётся делать бедному Сураджу (Дхармендра), оставшемуся без гроша в кармане? Мстить и бороться! Как? В одиночку? Разве это возможно? Союзником ему в этой борьбе становится Интерпол и отдел по борьбе с наркопреступностью. Случай сводит Сураджа с актрисой и наркокурьером поневоле, Судхой (Хема Малини). Мог ли предполагать Сурадж, что именно Судха приведёт его к Каличарану, управляющему наркобизнесом?

Качество: DVDRip
Формат: AVI
Видео кодек: XviD
Аудио кодек: AC3
Видео: Видео: XviD, 640x480 , 23.9fps, 1027 Kbps
Аудио#1: AC3 , 2 ch , 48 kHz , 256 kbps
Общее
Полное имя : D:Gashish.1976.DVDRip.Xvid.avi
Формат : AVI
Формат/Информация : Audio Video Interleave
Размер файла : 1,42 Гбайт
Продолжительность : 2 ч. 37 м.
Общий поток : 1293 Кбит/сек
Программа кодирования : VirtualDubMod 1.5.10.2 (build 2540/release)
Библиотека кодирования : VirtualDubMod build 2540/release

Видео
Идентификатор : 0
Формат : MPEG-4 Visual
Профиль формата : Advanced Simple@L5
Параметр BVOP формата : 2
Параметр QPel формата : Нет
Параметр GMC формата : Без точки перехода
Параметр матрицы формата : Default (H.263)
Режим смешивания : Сжатый битовый поток
Идентификатор кодека : XVID
Идентификатор кодека/Подсказка : XviD
Продолжительность : 2 ч. 37 м.
Битрейт : 1027 Кбит/сек
Ширина : 640 пикселей
Высота : 480 пикселей
Соотношение сторон : 4:3
Частота кадров : 23,976 кадра/сек
Цветовое пространство : YUV
Субдискретизация насыщенности : 4:2:0
Битовая глубина : 8 бит
Тип развёртки : Прогрессивная
Метод сжатия : С потерями
Бит/(Пиксели*Кадры) : 0.139
Размер потока : 1,13 Гбайт (79%)
Библиотека кодирования : XviD 1.2.1 (UTC 2008-12-04)

Аудио
Идентификатор : 1
Формат : AC-3
Формат/Информация : Audio Coding 3
Расширение режима : CM (complete main)
Параметр Endianness формата : Big
Идентификатор кодека : 2000
Продолжительность : 2 ч. 37 м.
Вид битрейта : Постоянный
Битрейт : 256 Кбит/сек
Каналы : 2 канала
Расположение каналов : Front: L R
Частота : 48,0 КГц
Битовая глубина : 16 бит
Метод сжатия : С потерями
Размер потока : 288 Мбайт (20%)
Выравнивание : Разделение по промежуткам
Продолжительность промежутка : 42 мс. (1,00 видеокадр)
Время предзагрузки промежутка : 500 мс.

freetor.icu



Скачать Гашиш через торрент https://d.radikal.ru/d33/1806/e0/5daea2b31999.jpg Скачать, смотреть онлайн Гашиш бесплантно в хорошем качестве Описание: Враги сожгли родную хату, отца убили, родную сестру продали в притон. Да ещё управляющий Каличаран (Аджит) присвоил всё ... 10 10 4
Торрент: Зарегистрирован [2018-06-24 12:25] · скачан: 6 раз
Статус: √ проверено
Размер: 1.42 GB
Как cкачать? Как скачать Гашиш через торрент | UTorrent

28-11-2019 20:33  

Отключить всю рекламу на сайте

24-06-2018 13:59 Гашиш Скачать торрент  

Топик был перенесен из форума Оформление раздач (Кино, Видео и ТВ) в форум Индийское кино


-Lexx-freetor.icu



24-06-2018 15:12 Гашиш Скачать торрент  

wtf
sarcasticfreetor.icu



    Дорогой пользователь! Огромная просьба, поблагодарите релизера, оцените раздачу и оставьте свои комментарий, если Вы скачали Гашиш через торрент бесплатно!
    Комментировать посты могут только пользователи прошедшие не сложную регистрацию
    Показать сообщения:    

    Гашиш через торрент
    Скачать бесплатно Гашиш
    Гашиш скачать торрент
    Гашиш смотреть онлайн
    Cкачать фильм Гашиш бесплатно
    Гашиш скачать торрент в хорошем качестве
    Гашиш смотреть онлайн бесплатно в хорошем качестве


    Вы не можете начинать темы
    Вы не можете отвечать на сообщения
    Вы не можете редактировать свои сообщения
    Вы не можете удалять свои сообщения
    Вы не можете голосовать в опросах
    Вы не можете прикреплять файлы к сообщениям
    Вы можете скачивать файлы