Всегда рабочее зеркало без VPN и Proxy просто перед .vidak.icu напиши любое слово или цифру, Пример http://nrlz.vidak.icu

MVO

Лицензия

1 сезон

1

1 сезон

iTunes

1 сезон

13

1 сезон

Deluxe

pack

Рекомендуем

Пиратка

30

ВАЖНО

RePack

MK11

RePack

jed

RePack

fifa19

RePack

RDR2

RePack

NEED FOR SPEED™ PAYBACK

Кинопоиск HD

6 сезон

 Острые козырьки 6 сезон

Все сериалы

все сериалы на PB.wtf

RePack

FAR CRY 5

Anonymous, нам критически не хватает 2100 руб. на оплату серверов и переферии за МАЙ, помоги нам пожалуйста, вся надежда только на тебя. В благодарность мы отключим тебе всю рекламу на сайте!

×
  
Magnet ссылка

Миссис Даутфайр / Mrs. Doubtfire (Крис Коламбус) [1993, Комедия, драма, семейный, UHD WEBRip 2160p] 4xMVO+4xAVO freetor.icu

Миссис Даутфайр через торрент freetor.icu

Размер: 42.7 GB | Добавлен: 4 года назад | Торрент скачан:10 раз
Смотреть онлайн Миссис Даутфайр | Скачать    Ребята, помогите собрать деньги на оплату серверов!!!

22-06-2018 16:55 Миссис Даутфайр Скачать торрент  

Миссис Даутфайр / Mrs. Doubtfire
Год выпуска: 1993
Страна: США
Жанр: Комедия, драма, семейный
Продолжительность: 02:05:11
Перевод: Профессиональный (многоголосый), Авторский
Субтитры: Русские, английские

Режиссер: Крис Коламбус

rating

В ролях:

Робин Уильямс, Салли Филд, Пирс Броснан, Харви Фирштейн, Полли Холлидей, Лиза Якуб, Мэттью Лоуренс, Мара Уилсон, Роберт Проски, Энн Хейни, Скотт Капурро, Сидни Уолкер, Мартин Мулл, Теренс МакГоверн, Карен Кан, Джеймс Каннингэм, Ральф Педуто, Скотт Бич, Джульетт Маршалл, Дрю Летчуэрт, Джессика Маерсон

Описание:

Неприятности сыплются на Дэниеля Хиларда, как из рога изобилия: он теряет работу, от него уходит жена и после развода ему позволено видеть детей всего раз в неделю! Но Дэниель находит выход — переодевается в женское платье и становится Миссис Даутфайр — пожилой женщиной. Он нанимается к собственной жене в домработницы, и теперь может видеть своих детей каждый день. Последствия, естественно, будут самыми непредсказуемыми... Экранизация по произведению: Энн Файн.

Качество: UHD WEBRip 2160p
Формат: MKV

Видео: HEVC SDR, 37.9 Mбит/с, 3840x1608, 23.976 кадр/с
Аудио#1: Русский (DTS, 6 ch, 768 Кбит/с) / Профессиональный многоголосый (R5)
Аудио#2: Русский (AC3, 2 ch, 192 Кбит/с) / Профессиональный многоголосый (ОРТ)
Аудио#3: Русский (AC3, 2 ch, 256 Кбит/с) / Профессиональный многоголосый (Премьер-видеофильм)
Аудио#4: Русский (AC3, 2 ch, 224 Кбит/с) / Профессиональный многоголосый (РЕН-ТВ)
Аудио#5: Русский (DTS, 6 ch, 1509 Кбит/с) / Авторский (Володарский)
Аудио#6: Русский (DTS, 6 ch, 1509 Кбит/с) / Авторский (Гаврилов)
Аудио#7: Русский (DTS, 6 ch, 1509 Кбит/с) / Авторский (Горчаков)
Аудио#8: Русский (DTS, 6 ch, 1509 Кбит/с) / Авторский (Сонькин)
Аудио#9: Английский (DTS-HD MA, 6 ch, 3419 Кбит/с)
скриншот   скриншот   скриншот   скриншот   скриншот  

General
Unique ID : 82997869393960598294941201098409378523 (0x3E70CEE61AC483F9E2FF05CAFB7E02DB)
Complete name : C:UsersPublicVideosSample VideosFilmyMrs.Doubtfire.1993.2160p.SDR.WEBRip.MediaClub.mkv
Format : Matroska
Format version : Version 4 / Version 2
File size : 42.7 GiB
Duration : 2 h 5 min
Overall bit rate : 48.8 Mb/s
Encoded date : UTC 2018-06-07 19:55:45
Writing application : mkvmerge v19.0.0 ('Brave Captain') 64-bit
Writing library : libebml v1.3.5 + libmatroska v1.4.8
Cover : Yes
Attachments : cover.jpg

Video
ID : 1
Format : HEVC
Format/Info : High Efficiency Video Coding
Format profile : Main [email protected]@Main
Codec ID : V_MPEGH/ISO/HEVC
Duration : 2 h 5 min
Bit rate : 37.9 Mb/s
Width : 3 840 pixels
Height : 1 608 pixels
Display aspect ratio : 2.40:1
Frame rate mode : Constant
Frame rate : 23.976 (24000/1001) FPS
Color space : YUV
Chroma subsampling : 4:2:0
Bit depth : 10 bits
Bits/(Pixel*Frame) : 0.256
Stream size : 33.2 GiB (78%)
Title : WEBRip.2160p.SDR by Silverok
Writing library : x265 2.6+31-3712d13c09bf:[Windows][GCC 7.2.0][64 bit] 10bit
Encoding settings : cpuid=1173503 / frame-threads=3 / numa-pools=8 / wpp / no-pmode / no-pme / no-psnr / no-ssim / log-level=2 / input-csp=1 / input-res=3840x1608 / interlace=0 / total-frames=180016 / level-idc=0 / high-tier=1 / uhd-bd=0 / ref=3 / no-allow-non-conformance / repeat-headers / annexb / no-aud / no-hrd / info / hash=0 / no-temporal-layers / open-gop / min-keyint=23 / keyint=250 / gop-lookahead=0 / bframes=4 / b-adapt=2 / b-pyramid / bframe-bias=0 / rc-lookahead=20 / lookahead-slices=8 / scenecut=40 / radl=0 / no-intra-refresh / ctu=64 / min-cu-size=8 / no-rect / no-amp / max-tu-size=32 / tu-inter-depth=1 / tu-intra-depth=1 / limit-tu=0 / rdoq-level=0 / dynamic-rd=0.00 / no-ssim-rd / signhide / no-tskip / nr-intra=0 / nr-inter=0 / no-constrained-intra / strong-intra-smoothing / max-merge=2 / limit-refs=3 / no-limit-modes / me=1 / subme=2 / merange=57 / temporal-mvp / weightp / no-weightb / no-analyze-src-pics / deblock=0:0 / sao / no-sao-non-deblock / rd=3 / no-early-skip / rskip / no-fast-intra / no-tskip-fast / no-cu-lossless / no-b-intra / no-splitrd-skip / rdpenalty=0 / psy-rd=2.00 / psy-rdoq=0.00 / no-rd-refine / no-lossless / cbqpoffs=0 / crqpoffs=0 / rc=crf / crf=17.0 / qcomp=0.60 / qpstep=4 / stats-write=0 / stats-read=0 / ipratio=1.40 / pbratio=1.30 / aq-mode=1 / aq-strength=1.00 / cutree / zone-count=0 / no-strict-cbr / qg-size=32 / no-rc-grain / qpmax=69 / qpmin=0 / no-const-vbv / sar=0 / overscan=0 / videoformat=5 / range=0 / colorprim=1 / transfer=1 / colormatrix=1 / chromaloc=0 / display-window=0 / max-cll=0,0 / min-luma=0 / max-luma=1023 / log2-max-poc-lsb=8 / vui-timing-info / vui-hrd-info / slices=1 / no-opt-qp-pps / no-opt-ref-list-length-pps / no-multi-pass-opt-rps / scenecut-bias=0.05 / no-opt-cu-delta-qp / no-aq-motion / no-hdr / no-hdr-opt / no-dhdr10-opt / analysis-reuse-level=5 / scale-factor=0 / refine-intra=0 / refine-inter=0 / refine-mv=0 / no-limit-sao / ctu-info=0 / no-lowpass-dct / refine-mv-type=0 / copy-pic=1
Default : Yes
Forced : No
Color range : Limited
Color primaries : BT.709
Transfer characteristics : BT.709
Matrix coefficients : BT.709

Audio #1
ID : 2
Format : DTS
Format/Info : Digital Theater Systems
Codec ID : A_DTS
Duration : 2 h 5 min
Bit rate mode : Constant
Bit rate : 768 kb/s
Channel(s) : 6 channels
Channel positions : Front: L C R, Side: L R, LFE
Sampling rate : 48.0 kHz
Frame rate : 93.750 FPS (512 SPF)
Bit depth : 24 bits
Compression mode : Lossy
Stream size : 688 MiB (2%)
Title : Профессиональный многоголосый (R5)
Language : Russian
Default : Yes
Forced : No

Audio #2
ID : 3
Format : AC-3
Format/Info : Audio Coding 3
Codec ID : A_AC3
Duration : 2 h 5 min
Bit rate mode : Constant
Bit rate : 192 kb/s
Channel(s) : 2 channels
Channel positions : Front: L R
Sampling rate : 48.0 kHz
Frame rate : 31.250 FPS (1536 SPF)
Bit depth : 16 bits
Compression mode : Lossy
Stream size : 172 MiB (0%)
Title : Профессиональный многоголосый (ОРТ)
Language : Russian
Service kind : Complete Main
Default : No
Forced : No

Audio #3
ID : 4
Format : AC-3
Format/Info : Audio Coding 3
Codec ID : A_AC3
Duration : 2 h 5 min
Bit rate mode : Constant
Bit rate : 256 kb/s
Channel(s) : 2 channels
Channel positions : Front: L R
Sampling rate : 48.0 kHz
Frame rate : 31.250 FPS (1536 SPF)
Bit depth : 16 bits
Compression mode : Lossy
Stream size : 229 MiB (1%)
Title : Профессиональный многоголосый (Премьер-видеофильм)
Language : Russian
Service kind : Complete Main
Default : No
Forced : No

Audio #4
ID : 5
Format : AC-3
Format/Info : Audio Coding 3
Codec ID : A_AC3
Duration : 2 h 5 min
Bit rate mode : Constant
Bit rate : 224 kb/s
Channel(s) : 2 channels
Channel positions : Front: L R
Sampling rate : 48.0 kHz
Frame rate : 31.250 FPS (1536 SPF)
Bit depth : 16 bits
Compression mode : Lossy
Stream size : 201 MiB (0%)
Title : Профессиональный многоголосый (РЕН-ТВ)
Language : Russian
Service kind : Complete Main
Default : No
Forced : No

Audio #5
ID : 6
Format : DTS
Format/Info : Digital Theater Systems
Codec ID : A_DTS
Duration : 2 h 5 min
Bit rate mode : Constant
Bit rate : 1 509 kb/s
Channel(s) : 6 channels
Channel positions : Front: L C R, Side: L R, LFE
Sampling rate : 48.0 kHz
Frame rate : 93.750 FPS (512 SPF)
Bit depth : 24 bits
Compression mode : Lossy
Stream size : 1.32 GiB (3%)
Title : Авторский (Володарский)
Language : Russian
Default : No
Forced : No

Audio #6
ID : 7
Format : DTS
Format/Info : Digital Theater Systems
Codec ID : A_DTS
Duration : 2 h 5 min
Bit rate mode : Constant
Bit rate : 1 509 kb/s
Channel(s) : 6 channels
Channel positions : Front: L C R, Side: L R, LFE
Sampling rate : 48.0 kHz
Frame rate : 93.750 FPS (512 SPF)
Bit depth : 24 bits
Compression mode : Lossy
Stream size : 1.32 GiB (3%)
Title : Авторский (Гаврилов)
Language : Russian
Default : No
Forced : No

Audio #7
ID : 8
Format : DTS
Format/Info : Digital Theater Systems
Codec ID : A_DTS
Duration : 2 h 5 min
Bit rate mode : Constant
Bit rate : 1 509 kb/s
Channel(s) : 6 channels
Channel positions : Front: L C R, Side: L R, LFE
Sampling rate : 48.0 kHz
Frame rate : 93.750 FPS (512 SPF)
Bit depth : 24 bits
Compression mode : Lossy
Stream size : 1.32 GiB (3%)
Title : Авторский (Горчаков)
Language : Russian
Default : No
Forced : No

Audio #8
ID : 9
Format : DTS
Format/Info : Digital Theater Systems
Codec ID : A_DTS
Duration : 2 h 5 min
Bit rate mode : Constant
Bit rate : 1 509 kb/s
Channel(s) : 6 channels
Channel positions : Front: L C R, Side: L R, LFE
Sampling rate : 48.0 kHz
Frame rate : 93.750 FPS (512 SPF)
Bit depth : 24 bits
Compression mode : Lossy
Stream size : 1.32 GiB (3%)
Title : Авторский (Сонькин)
Language : Russian
Default : No
Forced : No

Audio #9
ID : 10
Format : DTS
Format/Info : Digital Theater Systems
Format profile : MA / Core
Codec ID : A_DTS
Duration : 2 h 5 min
Bit rate mode : Variable / Constant
Bit rate : 3 419 kb/s / 1 509 kb/s
Channel(s) : 6 channels
Channel positions : Front: L C R, Side: L R, LFE
Sampling rate : 48.0 kHz
Frame rate : 93.750 FPS (512 SPF)
Bit depth : 24 bits
Compression mode : Lossless / Lossy
Stream size : 2.99 GiB (7%)
Language : English
Default : No
Forced : No

Text #1
ID : 11
Format : UTF-8
Codec ID : S_TEXT/UTF8
Codec ID/Info : UTF-8 Plain Text
Duration : 2 h 0 min
Bit rate : 101 b/s
Count of elements : 1513
Stream size : 90.1 KiB (0%)
Title : Full
Language : Russian
Default : Yes
Forced : No

Text #2
ID : 12
Format : UTF-8
Codec ID : S_TEXT/UTF8
Codec ID/Info : UTF-8 Plain Text
Duration : 2 h 0 min
Bit rate : 81 b/s
Count of elements : 1837
Stream size : 72.0 KiB (0%)
Title : Full
Language : English
Default : No
Forced : No

freetor.icu



Скачать Миссис Даутфайр через торрент http://img11.lostpic.net/2018/06/22/ced3e21a930996aa6d16f54fe0ba721e.jpg Скачать, смотреть онлайн Миссис Даутфайр бесплантно в хорошем качестве Описание: Неприятности сыплются на Дэниеля Хиларда, как из рога изобилия: он теряет работу, от него уходит жена и после развода ему ... 10 10 3
Info! Золотая раздача, скачанное не засчитывается.
Торрент: Зарегистрирован [2018-06-22 16:55] · скачан: 10 раз
Статус: √ проверено
Размер: 42.7 GB
Как cкачать? Как скачать Миссис Даутфайр через торрент | UTorrent

28-11-2019 20:33  

Отключить всю рекламу на сайте

    Дорогой пользователь! Огромная просьба, поблагодарите релизера, оцените раздачу и оставьте свои комментарий, если Вы скачали Миссис Даутфайр через торрент бесплатно!
    Комментировать посты могут только пользователи прошедшие не сложную регистрацию
    Показать сообщения:    

    Миссис Даутфайр через торрент
    Скачать бесплатно Миссис Даутфайр
    Миссис Даутфайр скачать торрент
    Миссис Даутфайр смотреть онлайн
    Cкачать фильм Миссис Даутфайр бесплатно
    Миссис Даутфайр скачать торрент в хорошем качестве
    Миссис Даутфайр смотреть онлайн бесплатно в хорошем качестве


    Вы не можете начинать темы
    Вы не можете отвечать на сообщения
    Вы не можете редактировать свои сообщения
    Вы не можете удалять свои сообщения
    Вы не можете голосовать в опросах
    Вы не можете прикреплять файлы к сообщениям
    Вы можете скачивать файлы