Всегда рабочее зеркало без VPN и Proxy просто перед .vidak.icu напиши любое слово или цифру, Пример http://im4f.vidak.icu

MVO

Лицензия

1 сезон

1

1 сезон

iTunes

1 сезон

13

1 сезон

Deluxe

pack

Рекомендуем

Пиратка

30

ВАЖНО

RePack

MK11

RePack

jed

RePack

fifa19

RePack

RDR2

RePack

NEED FOR SPEED™ PAYBACK

Кинопоиск HD

6 сезон

 Острые козырьки 6 сезон

Все сериалы

все сериалы на PB.wtf

RePack

FAR CRY 5

Anonymous, нам критически не хватает 2100 руб. на оплату серверов и переферии за МАЙ, помоги нам пожалуйста, вся надежда только на тебя. В благодарность мы отключим тебе всю рекламу на сайте!

×
  
Magnet ссылка

Отряд самоубийц / Suicide Squad (Дэвид Эйр) [2016, фантастика, фэнтези, боевик, UHD BDRemux 2160p] DUB (rus, ukr) + AVO [А.Матвеев] freetor.icu

Отряд самоубийц через торрент freetor.icu

Размер: 52.07 GB | Добавлен: 4 года назад | Торрент скачан:39 раз
Смотреть онлайн Отряд самоубийц | Скачать    Ребята, помогите собрать деньги на оплату серверов!!!

29-05-2018 13:51 Отряд самоубийц Скачать торрент  

Отряд самоубийц / Suicide Squad

Год выпуска: 2016
Страна: США
Жанр: фантастика, фэнтези, боевик, приключения
Продолжительность: 02:02:53
Перевод: Дублированный, авторский
Субтитры: Русские, английские, украинские
Режиссер: Дэвид Эйр
В ролях:

Марго Робби (Harley Quinn), Уилл Смит (Deadshot), Джаред Лето (The Joker), Джай Кортни (George Harkness / Captain Boomerang), Кара Делевинь (June Moone / Enchantress), Джей Эрнандес (Diablo), Юэль Киннаман (Rick Flag), Виола Дэвис (Amanda Waller), Адевале Акинойе-Агбаже (Killer Croc), Скотт Иствуд (Lieutenant GQ Edwards), Джейм Фицсаймонс (Sergeant Ames Bravo 14), Айк Баринхолц (Griggs)
Описание:
Правительство решает дать команде суперзлодеев шанс на искупление. Подвох в том, что их отправляют на выполнение миссии, где они, вероятнее всего, погибнут.
Рейтинг:

MPAA: PG-13 - Детям до 13 лет просмотр не желателен
Качество: UHD BDRemux 2160p
Формат: MKV
Видео: HEVC, HDR, 51000 Кбит/с, 3840x2160
Аудио: AC3, 6 ch, 448 kbps - Русский, Дубляж
Аудио: AC3, 2 ch, 192 kbps - Украинский
Аудио: DTS-HD MA, 8 ch, 5126 kbps - Русский, А.Матвеев
Аудио: Dolby Atmos TrueHD, 8 ch, 3800 kbps - Английский
Навигация по главам: есть
Релиз от: BLUEBIRD
General
Unique ID : 232880932074828619486933755236186874410 (0xAF333C6E2A08C484AE3E87D288CC622A)
Complete name : SUICIDE_SQUAD_BD_UHD_HDR_RMX-BLUEBIRD.mkv
Format : Matroska
Format version : Version 4 / Version 2
File size : 52.1 GiB
Duration : 2 h 2 min
Overall bit rate mode : Variable
Overall bit rate : 60.7 Mb/s
Movie name : SUICIDE_SQUAD_BD_UHD_HDR_RMX-BLUEBIRD
Encoded date : UTC 2017-10-16 15:52:54
Writing application : mkvmerge v16.0.0 ('Protest') 64-bit
Writing library : libebml v1.3.5 + libmatroska v1.4.8
Cover : Yes
Attachments : cover.png

Video
ID : 1
Format : HEVC
Format/Info : High Efficiency Video Coding
Format profile : Main [email protected]@High
Codec ID : V_MPEGH/ISO/HEVC
Duration : 2 h 2 min
Bit rate : 51.0 Mb/s
Width : 3 840 pixels
Height : 2 160 pixels
Display aspect ratio : 16:9
Frame rate mode : Constant
Frame rate : 23.976 (24000/1001) FPS
Color space : YUV
Chroma subsampling : 4:2:0 (Type 2)
Bit depth : 10 bits
Bits/(Pixel*Frame) : 0.256
Stream size : 43.8 GiB (84%)
Title : SUICIDE_SQUAD_BD_UHD_HDR_RMX-BLUEBIRD
Writing library : ATEME Titan File 3.7.6 (4.7.6.101)
Default : Yes
Forced : No
Color range : Limited
Color primaries : BT.2020
Transfer characteristics : SMPTE ST 2084
Matrix coefficients : BT.2020 non-constant
Mastering display color primaries : R: x=0.680000 y=0.320000, G: x=0.265000 y=0.690000, B: x=0.150000 y=0.060000, White point: x=0.312700 y=0.329000
Mastering display luminance : min: 0.0050 cd/m2, max: 4000.0000 cd/m2
Maximum Content Light Level : 902 cd/m2
Maximum Frame-Average Light Level : 182 cd/m2

Audio #1
ID : 2
Format : AC-3
Format/Info : Audio Coding 3
Format settings, Endianness : Big
Codec ID : A_AC3
Duration : 2 h 2 min
Bit rate mode : Constant
Bit rate : 448 kb/s
Channel(s) : 6 channels
Channel positions : Front: L C R, Side: L R, LFE
Sampling rate : 48.0 kHz
Frame rate : 31.250 FPS (1536 SPF)
Bit depth : 16 bits
Compression mode : Lossy
Stream size : 394 MiB (1%)
Title : [DUB] DD 5.1 @ 448 kbps
Language : Russian
Service kind : Complete Main
Default : Yes
Forced : No

Audio #2
ID : 3
Format : AC-3
Format/Info : Audio Coding 3
Format settings, Endianness : Big
Codec ID : A_AC3
Duration : 2 h 2 min
Bit rate mode : Constant
Bit rate : 192 kb/s
Channel(s) : 2 channels
Channel positions : Front: L R
Sampling rate : 48.0 kHz
Frame rate : 31.250 FPS (1536 SPF)
Bit depth : 16 bits
Compression mode : Lossy
Stream size : 169 MiB (0%)
Title : [DUB] DD 2.0 @ 192 kbps
Language : Ukrainian
Service kind : Complete Main
Default : No
Forced : No

Audio #3
ID : 4
Format : DTS
Format/Info : Digital Theater Systems
Format profile : MA / Core
Mode : 16
Format settings, Endianness : Big
Codec ID : A_DTS
Duration : 2 h 2 min
Bit rate mode : Variable / Constant
Bit rate : 5 126 kb/s / 1 509 kb/s
Channel(s) : 8 channels / 6 channels
Channel positions : Front: L C R, Side: L R, Back: L R, LFE / Front: L C R, Side: L R, LFE
Sampling rate : 48.0 kHz
Frame rate : 93.750 FPS (512 SPF)
Bit depth : 24 bits
Compression mode : Lossless / Lossy
Stream size : 4.40 GiB (8%)
Title : [VO] DTS HD-MA 7.1 @ 5127 kbps (Matveev)
Language : Russian
Default : No
Forced : No

Audio #4
ID : 5
Format : TrueHD
Format profile : TrueHD+Atmos / TrueHD
Codec ID : A_TRUEHD
Duration : 2 h 2 min
Bit rate mode : Variable
Bit rate : 3 800 kb/s
Maximum bit rate : 5 847 kb/s
Channel(s) : Object Based / 8 channels
Channel positions : Object Based / Front: L C R, Side: L R, Back: L R, LFE
Sampling rate : / 48.0 kHz
Frame rate : 1 200.000 FPS (40 SPF)
Compression mode : Lossless
Stream size : 3.26 GiB (6%)
Title : [ORIGINAL] ATMOS 7.1 @ 4184 kbps
Language : English
Default : No
Forced : No

Text #1
ID : 6
Format : UTF-8
Codec ID : S_TEXT/UTF8
Codec ID/Info : UTF-8 Plain Text
Duration : 2 h 2 min
Bit rate : 70 b/s
Count of elements : 1388
Stream size : 63.1 KiB (0%)
Title : Full-length
Language : Russian
Default : No
Forced : No

Text #2
ID : 7
Format : PGS
Codec ID : S_HDMV/PGS
Codec ID/Info : Picture based subtitle format used on BDs/HD-DVDs
Duration : 2 h 2 min
Bit rate : 30.5 kb/s
Count of elements : 3228
Stream size : 26.7 MiB (0%)
Title : Full-length
Language : English
Default : No
Forced : No

Text #3
ID : 8
Format : UTF-8
Codec ID : S_TEXT/UTF8
Codec ID/Info : UTF-8 Plain Text
Duration : 1 h 51 min
Bit rate : 5 b/s
Count of elements : 102
Stream size : 4.42 KiB (0%)
Title : Forced
Language : Russian
Default : Yes
Forced : No

Text #4
ID : 9
Format : UTF-8
Codec ID : S_TEXT/UTF8
Codec ID/Info : UTF-8 Plain Text
Duration : 1 h 51 min
Bit rate : 5 b/s
Count of elements : 96
Stream size : 4.49 KiB (0%)
Title : Forced
Language : Ukrainian
Default : No
Forced : No

Menu
00:00:00.000 : en:Chapter 1
00:09:07.505 : en:Chapter 2
00:19:03.725 : en:Chapter 3
00:29:27.140 : en:Chapter 4
00:39:17.313 : en:Chapter 5
00:50:21.226 : en:Chapter 6
01:00:10.106 : en:Chapter 7
01:11:46.927 : en:Chapter 8
01:22:46.127 : en:Chapter 9
01:32:01.098 : en:Chapter 10
01:39:21.830 : en:Chapter 11
01:52:27.991 : en:Chapter 12
freetor.icu



Скачать Отряд самоубийц через торрент https://a.radikal.ru/a35/1805/4e/32e0713e883d.jpg Скачать, смотреть онлайн Отряд самоубийц бесплантно в хорошем качестве Описание: Правительство решает дать команде суперзлодеев шанс на искупление. Подвох в том, что их отправляют на выполнение миссии, где они, ... 10 10 4
Торрент: Зарегистрирован [2018-05-29 13:51] · скачан: 39 раз
Статус: √ проверено
Размер: 52.07 GB
Как cкачать? Как скачать Отряд самоубийц через торрент | UTorrent

% Раздел Тема Автор DL S | L
Фильмы (HD 720p, 1080p) (48-60 fps) [ 4.35 GB ] Отряд самоубийц / Suicide Squad [2016 BDRip 720p / 60 FPS + AVO] от R.G. HD-Films slaventi-69 Скачать
1 | 0
Ultra HD (UHD: 2K, 4K, 8K) — видео сверхвысокой чёткости [ 19.36 GB ] Отряд самоубийц: Миссия навылет / The Suicide Squad [2021 UHD WEB-DL 2160p] +MVO [HDRezka Studio] +AVO [М. Яроцкий] bober100 Скачать
1 | 0
Ultra HD (UHD: 2K, 4K, 8K) — видео сверхвысокой чёткости [ 48.19 GB ] Отряд самоубийц / Suicide Squad [2016 UHD BDRemux 2160p] DUB+AVO [] bober100 Скачать
1 | 0
Фильмы (Blu-ray, BD-Remux, HDDVD) [ 25.5 GB ] Отряд самоубийц / Suicide Squad [2016 BD Remux 1080p] [ Blu-Ray CEE] DUB+AVO bober100 Скачать
1 | 0
Фильмы с авторской озвучкой [ 2.19 GB ] Отряд самоубийц / Suicide Squad [2016 BDRip] [Расширенная версия / Extended cut] [AVO] killermax2013 Скачать
1 | 0
R.G. Resident & PiratVoice - Фильмы, Видео [ 3.63 GB ] Отряд самоубийц / Suicide Squad [2016 BDRip-AVC] / Расширенная версия / AVO / R.G.Resident Хорват Скачать
1 | 0
R.G. Resident & PiratVoice - Фильмы, Видео [ 5.96 GB ] Отряд самоубийц / Suicide Squad [2016 BDRip 720p] / Расширенная версия / AVO / R.G.Resident Хорват Скачать
2 | 0

28-11-2019 20:33  

Отключить всю рекламу на сайте

    Дорогой пользователь! Огромная просьба, поблагодарите релизера, оцените раздачу и оставьте свои комментарий, если Вы скачали Отряд самоубийц через торрент бесплатно!
    Комментировать посты могут только пользователи прошедшие не сложную регистрацию
    Показать сообщения:    

    Отряд самоубийц через торрент
    Скачать бесплатно Отряд самоубийц
    Отряд самоубийц скачать торрент
    Отряд самоубийц смотреть онлайн
    Cкачать фильм Отряд самоубийц бесплатно
    Отряд самоубийц скачать торрент в хорошем качестве
    Отряд самоубийц смотреть онлайн бесплатно в хорошем качестве


    Вы не можете начинать темы
    Вы не можете отвечать на сообщения
    Вы не можете редактировать свои сообщения
    Вы не можете удалять свои сообщения
    Вы не можете голосовать в опросах
    Вы не можете прикреплять файлы к сообщениям
    Вы можете скачивать файлы