Всегда рабочее зеркало без VPN и Proxy просто перед .vidak.icu напиши любое слово или цифру, Пример http://fn41.vidak.icu

MVO

Лицензия

1 сезон

1

1 сезон

iTunes

1 сезон

13

1 сезон

Deluxe

pack

Рекомендуем

Пиратка

30

ВАЖНО

RePack

MK11

RePack

jed

RePack

fifa19

RePack

RDR2

RePack

NEED FOR SPEED™ PAYBACK

Кинопоиск HD

6 сезон

 Острые козырьки 6 сезон

Все сериалы

все сериалы на PB.wtf

RePack

FAR CRY 5

Anonymous, нам критически не хватает 2100 руб. на оплату серверов и переферии за МАЙ, помоги нам пожалуйста, вся надежда только на тебя. В благодарность мы отключим тебе всю рекламу на сайте!

×
  
Magnet ссылка

Пятьдесят оттенков свободы / Fifty Shades Freed (Джеймс Фоули) [2018, триллер, драма, мелодрама, UHD BDRemux 2160p] Дубляж - [Лицензия] [Расширенная версия] freetor.icu

Пятьдесят оттенков свободы через торрент freetor.icu

Размер: 54.24 GB | Добавлен: 4 года назад | Торрент скачан:61 раз
Смотреть онлайн Пятьдесят оттенков свободы | Скачать    Ребята, помогите собрать деньги на оплату серверов!!!

27-05-2018 12:19 Пятьдесят оттенков свободы Скачать торрент  

Пятьдесят оттенков свободы / Fifty Shades Freed«Миссис Грей ждёт вас»
Год выпуска: 2018
Страна: США
Жанр: триллер, драма, мелодрама
Продолжительность: 01:50:18
Перевод: Дублированный [Лицензия]
Субтитры: Русские (Forced, Full), Английские (Full)
Режиссер: Джеймс Фоули
В ролях:

Дакота Джонсон (Anastasia Steele), Джейми Дорнан (Christian Grey), Эрик Джонсон (Jack Hyde), Элоиза Мамфорд (Kate Kavanagh), Рита Ора (Mia Grey), Люк Граймс (Elliot Grey), Виктор Расук (José), Макс Мартини (Taylor), Дженнифер Эль (Carla), Марша Гей Харден (Grace Grey), Брюс Олтмен (Jerry Roach), Ариэль Кеббел (Gia Matteo)
Описание:
Кристиан и Анастейша поженились и живут в своё удовольствие, наслаждаясь обществом друг друга. Однако жизнь новоиспечённой миссис Грей находится в опасности, поскольку объявляется недруг, который собирается мстить, используя свою богатую фантазию. Призраки прошлого Кристиана вновь вернулись, а тучи над супругами сгущаются всё сильнее.
Рейтинг:

MPAA: R - Лицам до 17 лет обязательно присутствие взрослого
Качество: UHD BDRemux 2160p
Формат: MKV
Видео: HEVC, HDR, 65.2 Мбит/с, 3840x2160, 23.976 кадр/с
Аудио #1: DTS, 48.0 kHz, 6 ch, 768 kb/s, CBR (Russian)
Аудио #2: AC-3, 48.0 kHz, 6 ch, 448 kb/s, CBR (Russian)
Аудио #3: DTS X / MA / Core, / 48.0 kHz / 48.0 kHz, Object Based / 8 / 6 ch, 3 315 kb/s / 3 315 kb/s / 1 509 kb/s, VBR / VBR / CBR (English)
Аудио #4: AC-3, 48.0 kHz, 6 ch, 640 kb/s, CBR (English)
Навигация по главам: есть
Общее
Уникальный идентификатор : 244474933509800352445235079108001306118 (0xB7EC28D5A3615E19823C53BFC35C9606)
Полное имя : Fifty.Shades.Freed.2018.Unrated.Lic.BDRemux.2160p.4K.UltraHD.HEVC.HDR.IVA(RUS.ENG).ExKinoRay.mkv
Формат : Matroska
Версия формата : Version 4 / Version 2
Размер файла : 54,2 Гбайт
Продолжительность : 1 ч. 50 м.
Общий поток : 70,4 Мбит/сек
Название фильма : Пятьдесят оттенков свободы (Расширенная версия) / Fifty Shades Freed (Unrated Edition) ( 2018 ) UHD BDRemux | HDR, 4K | IVA(RUS.ENG) | ExKinoRay
Дата кодирования : UTC 2018-05-27 11:14:35
Программа кодирования : mkvmerge v23.0.0 ('The Bride Said No') 64-bit
Библиотека кодирования : libebml v1.3.6 + libmatroska v1.4.9
Обложка : Yes
Attachments : cover

Видео
Идентификатор : 1
Формат : HEVC
Формат/Информация : High Efficiency Video Coding
Коммерческое название : HDR10
Профиль формата : Main [email protected]@High
Идентификатор кодека : V_MPEGH/ISO/HEVC
Продолжительность : 1 ч. 50 м.
Битрейт : 65,2 Мбит/сек
Ширина : 3840 пикселей
Высота : 2160 пикселей
Соотношение сторон : 16:9
Режим частоты кадров : Постоянный
Частота кадров : 23,976 (24000/1001) кадра/сек
Цветовое пространство : YUV
Субдискретизация насыщенности : 4:2:0 (Type 2)
Битовая глубина : 10 бит
Бит/(Пиксели*Кадры) : 0.328
Размер потока : 50,2 Гбайт (93%)
Язык : English
Default : Да
Forced : Нет
Цветовой диапазон : Limited
Основные цвета : BT.2020
Характеристики трансфера : PQ
Коэффициенты матрицы : BT.2020 non-constant
MasteringDisplay_Luminance : min: 0.0050 cd/m2, max: 1000 cd/m2
MaxCLL : 952 cd/m2
MaxFALL : 200 cd/m2

Аудио #1
Идентификатор : 2
Формат : DTS
Формат/Информация : Digital Theater Systems
Идентификатор кодека : A_DTS
Продолжительность : 1 ч. 50 м.
Вид битрейта : Постоянный
Битрейт : 768 Кбит/сек
Каналы : 6 каналов
Расположение каналов : Front: L C R, Side: L R, LFE
Частота : 48,0 КГц
Частота кадров : 93,750 кадра/сек (512 SPF)
Битовая глубина : 24 бит
Метод сжатия : С потерями
Размер потока : 606 Мбайт (1%)
Заголовок : | Дублированный |
Язык : Russian
Default : Да
Forced : Нет

Аудио #2
Идентификатор : 3
Формат : AC-3
Формат/Информация : Audio Coding 3
Идентификатор кодека : A_AC3
Продолжительность : 1 ч. 50 м.
Вид битрейта : Постоянный
Битрейт : 448 Кбит/сек
Каналы : 6 каналов
Расположение каналов : Front: L C R, Side: L R, LFE
Частота : 48,0 КГц
Частота кадров : 31,250 кадров/сек (1536 SPF)
Битовая глубина : 16 бит
Метод сжатия : С потерями
Размер потока : 353 Мбайт (1%)
Заголовок : | Дублированный |
Язык : Russian
ServiceKind/String : Complete Main
Default : Нет
Forced : Нет

Аудио #3
Идентификатор : 4
Формат : DTS
Формат/Информация : Digital Theater Systems
Профиль формата : X / MA / Core
Идентификатор кодека : A_DTS
Продолжительность : 1 ч. 50 м.
Вид битрейта : Переменный / Переменный / Постоянный
Битрейт : 3315 Кбит/сек / 3315 Кбит/сек / 1509 Кбит/сек
Каналы : Object Based / 8 каналов / 6 каналов
Расположение каналов : Object Based / Front: L C R, Side: L R, Back: L R, LFE / Front: L C R, Side: L R, LFE
Частота : / 48,0 КГц / 48,0 КГц
Частота кадров : 93,750 кадра/сек (512 SPF)
Битовая глубина : / 24 бит / 24 бит
Метод сжатия : / Lossless / Lossy
Размер потока : 2,55 Гбайт (5%)
Заголовок : | Original |
Язык : English
Default : Нет
Forced : Нет

Аудио #4
Идентификатор : 5
Формат : AC-3
Формат/Информация : Audio Coding 3
Идентификатор кодека : A_AC3
Продолжительность : 1 ч. 50 м.
Вид битрейта : Постоянный
Битрейт : 640 Кбит/сек
Каналы : 6 каналов
Расположение каналов : Front: L C R, Side: L R, LFE
Частота : 48,0 КГц
Частота кадров : 31,250 кадров/сек (1536 SPF)
Битовая глубина : 16 бит
Метод сжатия : С потерями
Размер потока : 505 Мбайт (1%)
Заголовок : | Original |
Язык : English
ServiceKind/String : Complete Main
Default : Нет
Forced : Нет

Текст #1
Идентификатор : 6
Формат : UTF-8
Идентификатор кодека : S_TEXT/UTF8
Идентификатор кодека/Информация : UTF-8 Plain Text
Продолжительность : 1 ч. 49 м.
Битрейт : 1 бит/сек
ElementCount : 30
Размер потока : 1,02 Кбайт (0%)
Заголовок : Forced
Язык : Russian
Default : Да
Forced : Да

Текст #2
Идентификатор : 7
Формат : UTF-8
Идентификатор кодека : S_TEXT/UTF8
Идентификатор кодека/Информация : UTF-8 Plain Text
Продолжительность : 1 ч. 49 м.
Битрейт : 61 бит/сек
ElementCount : 1317
Размер потока : 49,6 Кбайт (0%)
Заголовок : Full
Язык : Russian
Default : Нет
Forced : Нет

Текст #3
Идентификатор : 8
Формат : UTF-8
Идентификатор кодека : S_TEXT/UTF8
Идентификатор кодека/Информация : UTF-8 Plain Text
Продолжительность : 1 ч. 43 м.
Битрейт : 49 бит/сек
ElementCount : 1387
Размер потока : 38,0 Кбайт (0%)
Заголовок : Full
Язык : English
Default : Нет
Forced : Нет

Текст #4
Идентификатор : 9
Формат : UTF-8
Идентификатор кодека : S_TEXT/UTF8
Идентификатор кодека/Информация : UTF-8 Plain Text
Продолжительность : 1 ч. 43 м.
Битрейт : 56 бит/сек
ElementCount : 1569
Размер потока : 43,0 Кбайт (0%)
Заголовок : SDH
Язык : English
Default : Нет
Forced : Нет

Меню
00:00:00.000 : en:Chapter 1
00:05:32.957 : en:Chapter 2
00:13:26.263 : en:Chapter 3
00:21:26.159 : en:Chapter 4
00:26:51.860 : en:Chapter 5
00:30:39.546 : en:Chapter 6
00:34:15.428 : en:Chapter 7
00:39:07.345 : en:Chapter 8
00:43:25.185 : en:Chapter 9
00:49:14.660 : en:Chapter 10
00:53:16.318 : en:Chapter 11
00:57:46.963 : en:Chapter 12
01:01:28.226 : en:Chapter 13
01:07:16.490 : en:Chapter 14
01:14:46.607 : en:Chapter 15
01:20:35.288 : en:Chapter 16
01:28:10.326 : en:Chapter 17
01:33:12.670 : en:Chapter 18
01:37:56.954 : en:Chapter 19
01:43:46.803 : en:Chapter 20
freetor.icu



Скачать Пятьдесят оттенков свободы через торрент https://a.radikal.ru/a34/1805/dc/19182d52aa29.jpg Скачать, смотреть онлайн Пятьдесят оттенков свободы бесплантно в хорошем качестве Описание: Кристиан и Анастейша поженились и живут в своё удовольствие, наслаждаясь обществом друг друга. Однако жизнь новоиспечённой миссис ... 10 10 3
Торрент: Зарегистрирован [2018-05-27 12:19] · скачан: 61 раз
Статус: √ проверено
Размер: 54.24 GB
Как cкачать? Как скачать Пятьдесят оттенков свободы через торрент | UTorrent

% Раздел Тема Автор DL S | L
Фильмы [HD 720p, 1080p] (Хороший звук DUB, MVO) [ 11.55 GB ] Пятьдесят оттенков свободы / Fifty Shades Freed [2018 BDRip 1080p от еnvy / NNNB] Unrated Cut | еnvy Скачать
9 | 1
Фильмы (Blu-ray, BD-Remux, HDDVD) [ 43.02 GB ] Пятьдесят оттенков свободы / Fifty Shades Freed [2018 Blu-ray EUR 1080p] [Театральная версия Расширенная версия] DUB [] bober100 Скачать
1 | 0
Фильмы 2018 [DVDrip, WEB-DLRip, HDrip] (DUB, MVO) [ 2.04 GB ] Пятьдесят оттенков свободы / Fifty Shades Freed [2018 BDRip-AVC] [Театральная версия] DUB [] - ExKinoRay Enigma2010 Скачать
1 | 0
Ultra HD (UHD: 2K, 4K, 8K) — видео сверхвысокой чёткости [ 51.63 GB ] Пятьдесят оттенков свободы / Fifty Shades Freed [2018 UHD BDRemux 2160p] [Театральная версия] DUB [] bober100 Скачать
1 | 0
Фильмы 2018 [DVDrip, WEB-DLRip, HDrip] (DUB, MVO) [ 2.18 GB ] Пятьдесят оттенков свободы / Fifty Shades Freed [2018 BDRip] - [] Twi7ter Скачать
1 | 0
Фильмы (Blu-ray, BD-Remux, HDDVD) [ 24.97 GB ] Пятьдесят оттенков свободы / Fifty Shades Freed [2018 BD Remux 1080p] [Расширенная версия] DUB [] bober100 Скачать
1 | 0
Фильмы 2018 [DVDrip, WEB-DLRip, HDrip] (DUB, MVO) [ 1.46 GB ] Пятьдесят оттенков свободы / Fifty Shades Freed [2018 BDRip] [Расширенная версия] DUB [ BD EUR] bober100 Скачать
1 | 0

28-11-2019 20:33  

Отключить всю рекламу на сайте

    Дорогой пользователь! Огромная просьба, поблагодарите релизера, оцените раздачу и оставьте свои комментарий, если Вы скачали Пятьдесят оттенков свободы через торрент бесплатно!
    Комментировать посты могут только пользователи прошедшие не сложную регистрацию
    Показать сообщения:    

    Пятьдесят оттенков свободы через торрент
    Скачать бесплатно Пятьдесят оттенков свободы
    Пятьдесят оттенков свободы скачать торрент
    Пятьдесят оттенков свободы смотреть онлайн
    Cкачать фильм Пятьдесят оттенков свободы бесплатно
    Пятьдесят оттенков свободы скачать торрент в хорошем качестве
    Пятьдесят оттенков свободы смотреть онлайн бесплатно в хорошем качестве


    Вы не можете начинать темы
    Вы не можете отвечать на сообщения
    Вы не можете редактировать свои сообщения
    Вы не можете удалять свои сообщения
    Вы не можете голосовать в опросах
    Вы не можете прикреплять файлы к сообщениям
    Вы можете скачивать файлы