Всегда рабочее зеркало без VPN и Proxy просто перед .vidak.icu напиши любое слово или цифру, Пример http://qnai.vidak.icu

MVO

Лицензия

1 сезон

1

1 сезон

iTunes

1 сезон

13

1 сезон

Deluxe

pack

Рекомендуем

Пиратка

30

ВАЖНО

RePack

MK11

RePack

jed

RePack

fifa19

RePack

RDR2

RePack

NEED FOR SPEED™ PAYBACK

Кинопоиск HD

6 сезон

 Острые козырьки 6 сезон

Все сериалы

все сериалы на PB.wtf

RePack

FAR CRY 5

Anonymous, нам критически не хватает 2100 руб. на оплату серверов и переферии за МАЙ, помоги нам пожалуйста, вся надежда только на тебя. В благодарность мы отключим тебе всю рекламу на сайте!

×
  
Magnet ссылка

Крепкий орешек / Die Hard (Джон МакТирнан) [1988, Боевик, триллер, драма, криминал, UHD BDRemux 2160p] MVO + AVO [Гаврилов] freetor.icu

Крепкий орешек через торрент freetor.icu

Размер: 55.85 GB | Добавлен: 4 года 1 мес. назад | Торрент скачан:30 раз
Смотреть онлайн Крепкий орешек | Скачать    Ребята, помогите собрать деньги на оплату серверов!!!

20-05-2018 07:25 Крепкий орешек Скачать торрент  

Крепкий орешек / Die Hard

Год выпуска: 1988
Страна: США, Великобритания
Жанр: Боевик, триллер, драма, криминал
Продолжительность: 02:12:07
Перевод: Профессиональный многоголосый, авторский (Гаврилов)
Субтитры: Английские, испанские, французские, датские, голландские, финские, немецкие, итальянские, норвежские, шведские, китайские, чешские, польские, японские
Режиссер: Джон МакТирнан
В ролях:

Брюс Уиллис (John McClane), Алан Рикман (Hans Gruber), Бонни Беделиа (Holly Gennaro McClane), Реджинальд ВелДжонсон (Sgt. Al Powell), Пол Глисон (Deputy Police Chief Dwayne T. Robinson), Уильям Этертон (Richard Thornburg), Харт Бокнер (Harry Ellis), Джеймс Шигета (Joseph Yoshinobu Takagi), Александр Годунов (Karl), Роберт Дави (FBI Special Agent Big Johnson), Гранд Л. Буш (FBI Agent Little Johnson), Бруно Доуон (Franco)
Описание:
В суперсовременном небоскребе Лос-Анджелеса полицейский Джон Макклейн ведет смертельную схватку с бандой политических террористов, взявших в заложники два десятка человек, в число которых попадает и его жена. Началось все с того, что парень приехал в город к жене, оказался на рождественском приеме, а кончилось настоящей войной...
Рейтинг:

MPAA: R - Лицам до 17 лет обязательно присутствие взрослого
Качество: UHD BDRemux 2160p
Формат: MKV
Видео: HEVC/H.265, 3840x2160, (16:9), 45.9 Mbps, 23.976 fps
Аудио 1: DTS, 6 ch, 754 kbps - Русский, многоголосый
Аудио 2: DTS, 6 ch, 754 kbps - Русский, Гаврилов
Аудио 3: DTS-HD MA, 6 ch, 3672 kbps - Английский
Аудио 4: DTS-HD MA, 2 ch, 2048 kbps - Английский
Аудио 5: AC3, 6 ch, 448 kbps - Испанский
Аудио 6: DTS, 6 ch, 768 kbps - Французский
Аудио 7: DTS, 6 ch, 768 kbps - Испанский
Аудио 8: DTS, 6 ch, 768 kbps - Немецкий
Аудио 9: DTS, 6 ch, 768 kbps - Итальянский
Аудио 10: AC3, 2 ch, 192 kbps - Чешский
Аудио 11: AC3, 6 ch, 448 kbps - Польский
Аудио 12: DTS, 6 ch, 768 kbps - Японский
Аудио 13: DTS, 6 ch, 768 kbps - Японский
Аудио 14: DTS, 6 ch, 768 kbps - Японский
Аудио 15: AC3, 2 ch, 224 kbps - Английский
Аудио 16: AC3, 2 ch, 224 kbps - Английский
Навигация по главам: есть
General
Unique ID : 34057320534118288478234509991333351863 (0x199F338B4B8EC60623398663606C51B7)
Complete name : Die.Hard.1988.2160p.BluRay.REMUX.HEVC.DTS-HD.MA.5.1.mkv
Format : Matroska
Format version : Version 4 / Version 2
File size : 55.8 GiB
Duration : 2 h 12 min
Overall bit rate : 60.5 Mb/s
Movie name : Die.Hard.1988.2160p.BluRay.REMUX.HEVC.DTS-HD.MA.5.1
Encoded date : UTC 2018-05-11 11:42:28
Writing application : mkvmerge v23.0.0 ('The Bride Said No') 64-bit
Writing library : libebml v1.3.6 + libmatroska v1.4.9

Video
ID : 1
Format : HEVC
Format/Info : High Efficiency Video Coding
Format profile : Main [email protected]@High
Codec ID : V_MPEGH/ISO/HEVC
Duration : 2 h 12 min
Bit rate : 45.9 Mb/s
Width : 3 840 pixels
Height : 2 160 pixels
Display aspect ratio : 16:9
Frame rate mode : Constant
Frame rate : 23.976 (24000/1001) FPS
Color space : YUV
Chroma subsampling : 4:2:0 (Type 2)
Bit depth : 10 bits
Bits/(Pixel*Frame) : 0.231
Stream size : 42.4 GiB (76%)
Title : Die.Hard.1988.2160p.BluRay.REMUX.HEVC.DTS-HD.MA.5.1
Default : Yes
Forced : No
Color range : Limited
Color primaries : BT.2020
Transfer characteristics : PQ
Matrix coefficients : BT.2020 non-constant
Mastering display color primaries : Display P3
Mastering display luminance : min: 0.0050 cd/m2, max: 1000 cd/m2

Audio #1
ID : 2
Format : DTS
Format/Info : Digital Theater Systems
Codec ID : A_DTS
Duration : 2 h 12 min
Bit rate mode : Constant
Bit rate : 754 kb/s
Channel(s) : 6 channels
Channel positions : Front: L C R, Side: L R, LFE
Sampling rate : 48.0 kHz
Frame rate : 93.750 FPS (512 SPF)
Bit depth : 24 bits
Compression mode : Lossy
Stream size : 713 MiB (1%)
Title : DTS 5.1 768k Mnogogoloska
Language : Russian
Default : No
Forced : No

Audio #2
ID : 3
Format : DTS
Format/Info : Digital Theater Systems
Codec ID : A_DTS
Duration : 2 h 12 min
Bit rate mode : Constant
Bit rate : 754 kb/s
Channel(s) : 6 channels
Channel positions : Front: L C R, Side: L R, LFE
Sampling rate : 48.0 kHz
Frame rate : 93.750 FPS (512 SPF)
Bit depth : 24 bits
Compression mode : Lossy
Stream size : 713 MiB (1%)
Title : DTS 5.1 768k Gavrilov
Language : Russian
Default : No
Forced : No

Audio #3
ID : 4
Format : DTS
Format/Info : Digital Theater Systems
Format profile : MA / Core
Codec ID : A_DTS
Duration : 2 h 12 min
Bit rate mode : Variable / Constant
Bit rate : 3 672 kb/s / 1 509 kb/s
Channel(s) : 6 channels
Channel positions : Front: L C R, Side: L R, LFE
Sampling rate : 48.0 kHz
Frame rate : 93.750 FPS (512 SPF)
Bit depth : 24 bits
Compression mode : Lossless / Lossy
Stream size : 3.39 GiB (6%)
Title : Die.Hard.1988.2160p.BluRay.REMUX.HEVC.DTS-HD.MA.5.1
Language : English
Default : Yes
Forced : No

Audio #4
ID : 5
Format : DTS
Format/Info : Digital Theater Systems
Format profile : MA / Core
Codec ID : A_DTS
Duration : 2 h 12 min
Bit rate mode : Variable / Constant
Bit rate : 2 048 kb/s / 1 509 kb/s
Channel(s) : 2 channels
Channel positions : / Front: L R
Sampling rate : 48.0 kHz
Frame rate : 93.750 FPS (512 SPF)
Bit depth : 24 bits
Compression mode : Lossless / Lossy
Stream size : 1.88 GiB (3%)
Title : Die.Hard.1988.2160p.BluRay.REMUX.HEVC.DTS-HD.MA.5.1
Language : English
Default : No
Forced : No

Audio #5
ID : 6
Format : AC-3
Format/Info : Audio Coding 3
Codec ID : A_AC3
Duration : 2 h 12 min
Bit rate mode : Constant
Bit rate : 448 kb/s
Channel(s) : 6 channels
Channel positions : Front: L C R, Side: L R, LFE
Sampling rate : 48.0 kHz
Frame rate : 31.250 FPS (1536 SPF)
Bit depth : 16 bits
Compression mode : Lossy
Delay relative to video : 28 ms
Stream size : 423 MiB (1%)
Title : Die.Hard.1988.2160p.BluRay.REMUX.HEVC.DTS-HD.MA.5.1
Language : Spanish
Service kind : Complete Main
Default : No
Forced : No

Audio #6
ID : 7
Format : DTS
Format/Info : Digital Theater Systems
Codec ID : A_DTS
Duration : 2 h 12 min
Bit rate mode : Constant
Bit rate : 768 kb/s
Channel(s) : 6 channels
Channel positions : Front: L C R, Side: L R, LFE
Sampling rate : 48.0 kHz
Frame rate : 93.750 FPS (512 SPF)
Bit depth : 24 bits
Compression mode : Lossy
Stream size : 726 MiB (1%)
Title : Die.Hard.1988.2160p.BluRay.REMUX.HEVC.DTS-HD.MA.5.1
Language : French
Default : No
Forced : No

Audio #7
ID : 8
Format : DTS
Format/Info : Digital Theater Systems
Codec ID : A_DTS
Duration : 2 h 12 min
Bit rate mode : Constant
Bit rate : 768 kb/s
Channel(s) : 6 channels
Channel positions : Front: L C R, Side: L R, LFE
Sampling rate : 48.0 kHz
Frame rate : 93.750 FPS (512 SPF)
Bit depth : 24 bits
Compression mode : Lossy
Stream size : 726 MiB (1%)
Title : Die.Hard.1988.2160p.BluRay.REMUX.HEVC.DTS-HD.MA.5.1
Language : Spanish
Default : No
Forced : No

Audio #8
ID : 9
Format : DTS
Format/Info : Digital Theater Systems
Codec ID : A_DTS
Duration : 2 h 12 min
Bit rate mode : Constant
Bit rate : 768 kb/s
Channel(s) : 6 channels
Channel positions : Front: L C R, Side: L R, LFE
Sampling rate : 48.0 kHz
Frame rate : 93.750 FPS (512 SPF)
Bit depth : 24 bits
Compression mode : Lossy
Stream size : 726 MiB (1%)
Title : Die.Hard.1988.2160p.BluRay.REMUX.HEVC.DTS-HD.MA.5.1
Language : German
Default : No
Forced : No

Audio #9
ID : 10
Format : DTS
Format/Info : Digital Theater Systems
Codec ID : A_DTS
Duration : 2 h 12 min
Bit rate mode : Constant
Bit rate : 768 kb/s
Channel(s) : 6 channels
Channel positions : Front: L C R, Side: L R, LFE
Sampling rate : 48.0 kHz
Frame rate : 93.750 FPS (512 SPF)
Bit depth : 24 bits
Compression mode : Lossy
Stream size : 726 MiB (1%)
Title : Die.Hard.1988.2160p.BluRay.REMUX.HEVC.DTS-HD.MA.5.1
Language : Italian
Default : No
Forced : No

Audio #10
ID : 11
Format : AC-3
Format/Info : Audio Coding 3
Codec ID : A_AC3
Duration : 2 h 12 min
Bit rate mode : Constant
Bit rate : 192 kb/s
Channel(s) : 2 channels
Channel positions : Front: L R
Sampling rate : 48.0 kHz
Frame rate : 31.250 FPS (1536 SPF)
Bit depth : 16 bits
Compression mode : Lossy
Delay relative to video : 28 ms
Stream size : 181 MiB (0%)
Title : Die.Hard.1988.2160p.BluRay.REMUX.HEVC.DTS-HD.MA.5.1
Language : Czech
Service kind : Complete Main
Default : No
Forced : No

Audio #11
ID : 12
Format : AC-3
Format/Info : Audio Coding 3
Codec ID : A_AC3
Duration : 2 h 12 min
Bit rate mode : Constant
Bit rate : 448 kb/s
Channel(s) : 6 channels
Channel positions : Front: L C R, Side: L R, LFE
Sampling rate : 48.0 kHz
Frame rate : 31.250 FPS (1536 SPF)
Bit depth : 16 bits
Compression mode : Lossy
Delay relative to video : 28 ms
Stream size : 423 MiB (1%)
Title : Die.Hard.1988.2160p.BluRay.REMUX.HEVC.DTS-HD.MA.5.1
Language : Polish
Service kind : Complete Main
Default : No
Forced : No

Audio #12
ID : 13
Format : DTS
Format/Info : Digital Theater Systems
Codec ID : A_DTS
Duration : 2 h 12 min
Bit rate mode : Constant
Bit rate : 768 kb/s
Channel(s) : 6 channels
Channel positions : Front: L C R, Side: L R, LFE
Sampling rate : 48.0 kHz
Frame rate : 93.750 FPS (512 SPF)
Bit depth : 24 bits
Compression mode : Lossy
Stream size : 726 MiB (1%)
Title : Die.Hard.1988.2160p.BluRay.REMUX.HEVC.DTS-HD.MA.5.1
Language : Japanese
Default : No
Forced : No

Audio #13
ID : 14
Format : DTS
Format/Info : Digital Theater Systems
Codec ID : A_DTS
Duration : 2 h 12 min
Bit rate mode : Constant
Bit rate : 768 kb/s
Channel(s) : 6 channels
Channel positions : Front: L C R, Side: L R, LFE
Sampling rate : 48.0 kHz
Frame rate : 93.750 FPS (512 SPF)
Bit depth : 24 bits
Compression mode : Lossy
Stream size : 726 MiB (1%)
Title : Die.Hard.1988.2160p.BluRay.REMUX.HEVC.DTS-HD.MA.5.1
Language : Japanese
Default : No
Forced : No

Audio #14
ID : 15
Format : DTS
Format/Info : Digital Theater Systems
Codec ID : A_DTS
Duration : 2 h 12 min
Bit rate mode : Constant
Bit rate : 768 kb/s
Channel(s) : 6 channels
Channel positions : Front: L C R, Side: L R, LFE
Sampling rate : 48.0 kHz
Frame rate : 93.750 FPS (512 SPF)
Bit depth : 24 bits
Compression mode : Lossy
Stream size : 726 MiB (1%)
Title : Die.Hard.1988.2160p.BluRay.REMUX.HEVC.DTS-HD.MA.5.1
Language : Japanese
Default : No
Forced : No

Audio #15
ID : 16
Format : AC-3
Format/Info : Audio Coding 3
Codec ID : A_AC3
Duration : 2 h 12 min
Bit rate mode : Constant
Bit rate : 224 kb/s
Channel(s) : 2 channels
Channel positions : Front: L R
Sampling rate : 48.0 kHz
Frame rate : 31.250 FPS (1536 SPF)
Bit depth : 16 bits
Compression mode : Lossy
Delay relative to video : 14 ms
Stream size : 212 MiB (0%)
Title : Die.Hard.1988.2160p.BluRay.REMUX.HEVC.DTS-HD.MA.5.1
Language : English
Service kind : Complete Main
Default : No
Forced : No

Audio #16
ID : 17
Format : AC-3
Format/Info : Audio Coding 3
Codec ID : A_AC3
Duration : 2 h 12 min
Bit rate mode : Constant
Bit rate : 224 kb/s
Channel(s) : 2 channels
Channel positions : Front: L R
Sampling rate : 48.0 kHz
Frame rate : 31.250 FPS (1536 SPF)
Bit depth : 16 bits
Compression mode : Lossy
Delay relative to video : 24 ms
Stream size : 212 MiB (0%)
Title : Die.Hard.1988.2160p.BluRay.REMUX.HEVC.DTS-HD.MA.5.1
Language : English
Service kind : Complete Main
Default : No
Forced : No

Text #1
ID : 18
Format : PGS
Muxing mode : zlib
Codec ID : S_HDMV/PGS
Codec ID/Info : Picture based subtitle format used on BDs/HD-DVDs
Duration : 2 h 7 min
Bit rate : 29.7 kb/s
Count of elements : 2802
Stream size : 27.0 MiB (0%)
Title : English-PGS
Language : English
Default : Yes
Forced : No

Text #2
ID : 19
Format : PGS
Muxing mode : zlib
Codec ID : S_HDMV/PGS
Codec ID/Info : Picture based subtitle format used on BDs/HD-DVDs
Duration : 2 h 11 min
Bit rate : 41.6 kb/s
Count of elements : 2702
Stream size : 39.0 MiB (0%)
Title : Spanish-PGS
Language : Spanish
Default : No
Forced : No

Text #3
ID : 20
Format : PGS
Muxing mode : zlib
Codec ID : S_HDMV/PGS
Codec ID/Info : Picture based subtitle format used on BDs/HD-DVDs
Duration : 2 h 11 min
Bit rate : 40.8 kb/s
Count of elements : 2084
Stream size : 38.3 MiB (0%)
Title : French-PGS
Language : French
Default : No
Forced : No

Text #4
ID : 21
Format : PGS
Muxing mode : zlib
Codec ID : S_HDMV/PGS
Codec ID/Info : Picture based subtitle format used on BDs/HD-DVDs
Duration : 2 h 11 min
Bit rate : 47.4 kb/s
Count of elements : 2110
Stream size : 44.4 MiB (0%)
Title : Spanish-PGS
Language : Spanish
Default : No
Forced : No

Text #5
ID : 22
Format : PGS
Muxing mode : zlib
Codec ID : S_HDMV/PGS
Codec ID/Info : Picture based subtitle format used on BDs/HD-DVDs
Duration : 2 h 11 min
Bit rate : 40.7 kb/s
Count of elements : 2054
Stream size : 38.1 MiB (0%)
Title : Danish-PGS
Language : Danish
Default : No
Forced : No

Text #6
ID : 23
Format : PGS
Muxing mode : zlib
Codec ID : S_HDMV/PGS
Codec ID/Info : Picture based subtitle format used on BDs/HD-DVDs
Duration : 2 h 6 min
Bit rate : 38.6 kb/s
Count of elements : 2006
Stream size : 34.8 MiB (0%)
Title : Dutch-PGS
Language : Dutch
Default : No
Forced : No

Text #7
ID : 24
Format : PGS
Muxing mode : zlib
Codec ID : S_HDMV/PGS
Codec ID/Info : Picture based subtitle format used on BDs/HD-DVDs
Duration : 2 h 11 min
Bit rate : 46.3 kb/s
Count of elements : 2024
Stream size : 43.5 MiB (0%)
Title : Finnish-PGS
Language : Finnish
Default : No
Forced : No

Text #8
ID : 25
Format : PGS
Muxing mode : zlib
Codec ID : S_HDMV/PGS
Codec ID/Info : Picture based subtitle format used on BDs/HD-DVDs
Duration : 2 h 11 min
Bit rate : 51.5 kb/s
Count of elements : 2256
Stream size : 48.3 MiB (0%)
Title : German-PGS
Language : German
Default : No
Forced : No

Text #9
ID : 26
Format : PGS
Muxing mode : zlib
Codec ID : S_HDMV/PGS
Codec ID/Info : Picture based subtitle format used on BDs/HD-DVDs
Duration : 2 h 6 min
Bit rate : 47.1 kb/s
Count of elements : 2070
Stream size : 42.4 MiB (0%)
Title : Italian-PGS
Language : Italian
Default : No
Forced : No

Text #10
ID : 27
Format : PGS
Muxing mode : zlib
Codec ID : S_HDMV/PGS
Codec ID/Info : Picture based subtitle format used on BDs/HD-DVDs
Duration : 2 h 11 min
Bit rate : 44.2 kb/s
Count of elements : 1978
Stream size : 41.5 MiB (0%)
Title : Norwegian-PGS
Language : Norwegian
Default : No
Forced : No

Text #11
ID : 28
Format : PGS
Muxing mode : zlib
Codec ID : S_HDMV/PGS
Codec ID/Info : Picture based subtitle format used on BDs/HD-DVDs
Duration : 2 h 6 min
Bit rate : 38.5 kb/s
Count of elements : 1996
Stream size : 34.7 MiB (0%)
Title : Swedish-PGS
Language : Swedish
Default : No
Forced : No

Text #12
ID : 29
Format : PGS
Muxing mode : zlib
Codec ID : S_HDMV/PGS
Codec ID/Info : Picture based subtitle format used on BDs/HD-DVDs
Duration : 2 h 6 min
Bit rate : 26.6 kb/s
Count of elements : 2850
Stream size : 24.0 MiB (0%)
Title : Chinese-PGS
Language : Chinese
Default : No
Forced : No

Text #13
ID : 30
Format : PGS
Muxing mode : zlib
Codec ID : S_HDMV/PGS
Codec ID/Info : Picture based subtitle format used on BDs/HD-DVDs
Duration : 2 h 11 min
Bit rate : 48.3 kb/s
Count of elements : 2714
Stream size : 45.3 MiB (0%)
Title : Czech-PGS
Language : Czech
Default : No
Forced : No

Text #14
ID : 31
Format : PGS
Muxing mode : zlib
Codec ID : S_HDMV/PGS
Codec ID/Info : Picture based subtitle format used on BDs/HD-DVDs
Duration : 2 h 6 min
Bit rate : 22.8 kb/s
Count of elements : 2885
Stream size : 20.6 MiB (0%)
Title : Chinese-PGS
Language : Chinese
Default : No
Forced : No

Text #15
ID : 32
Format : PGS
Muxing mode : zlib
Codec ID : S_HDMV/PGS
Codec ID/Info : Picture based subtitle format used on BDs/HD-DVDs
Duration : 2 h 11 min
Bit rate : 45.8 kb/s
Count of elements : 2802
Stream size : 43.0 MiB (0%)
Title : Polish-PGS
Language : Polish
Default : No
Forced : No

Text #16
ID : 33
Format : PGS
Muxing mode : zlib
Codec ID : S_HDMV/PGS
Codec ID/Info : Picture based subtitle format used on BDs/HD-DVDs
Duration : 2 h 6 min
Bit rate : 16.0 kb/s
Count of elements : 2208
Stream size : 14.4 MiB (0%)
Title : Japnanese-PGS
Language : Japanese
Default : No
Forced : No

Text #17
ID : 34
Format : PGS
Muxing mode : zlib
Codec ID : S_HDMV/PGS
Codec ID/Info : Picture based subtitle format used on BDs/HD-DVDs
Duration : 1 h 33 min
Bit rate : 277 b/s
Count of elements : 38
Stream size : 190 KiB (0%)
Title : Japnanese-PGS
Language : Japanese
Default : No
Forced : No

Text #18
ID : 35
Format : PGS
Muxing mode : zlib
Codec ID : S_HDMV/PGS
Codec ID/Info : Picture based subtitle format used on BDs/HD-DVDs
Duration : 1 h 48 min
Bit rate : 1 389 b/s
Count of elements : 164
Stream size : 1.08 MiB (0%)
Title : Japnanese-PGS
Language : Japanese
Default : No
Forced : No

Text #19
ID : 36
Format : PGS
Muxing mode : zlib
Codec ID : S_HDMV/PGS
Codec ID/Info : Picture based subtitle format used on BDs/HD-DVDs
Duration : 1 h 33 min
Bit rate : 313 b/s
Count of elements : 42
Stream size : 215 KiB (0%)
Title : Japnanese-PGS
Language : Japanese
Default : No
Forced : No

Text #20
ID : 37
Format : PGS
Muxing mode : zlib
Codec ID : S_HDMV/PGS
Codec ID/Info : Picture based subtitle format used on BDs/HD-DVDs
Duration : 2 h 12 min
Bit rate : 55.3 kb/s
Count of elements : 3182
Stream size : 52.3 MiB (0%)
Title : English-COMMENTARY-PGS
Language : English
Default : No
Forced : No

Text #21
ID : 38
Format : PGS
Muxing mode : zlib
Codec ID : S_HDMV/PGS
Codec ID/Info : Picture based subtitle format used on BDs/HD-DVDs
Duration : 2 h 12 min
Bit rate : 47.6 kb/s
Count of elements : 3089
Stream size : 45.0 MiB (0%)
Title : French-COMMENTARY-PGS
Language : French
Default : No
Forced : No

Text #22
ID : 39
Format : PGS
Muxing mode : zlib
Codec ID : S_HDMV/PGS
Codec ID/Info : Picture based subtitle format used on BDs/HD-DVDs
Duration : 2 h 12 min
Bit rate : 50.1 kb/s
Count of elements : 3087
Stream size : 47.3 MiB (0%)
Title : Spanish-COMMENTARY-PGS
Language : Spanish
Default : No
Forced : No

Text #23
ID : 40
Format : PGS
Muxing mode : zlib
Codec ID : S_HDMV/PGS
Codec ID/Info : Picture based subtitle format used on BDs/HD-DVDs
Duration : 2 h 11 min
Bit rate : 46.0 kb/s
Count of elements : 3024
Stream size : 43.4 MiB (0%)
Title : Dutch-COMMENTARY-PGS
Language : Dutch
Default : No
Forced : No

Text #24
ID : 41
Format : PGS
Muxing mode : zlib
Codec ID : S_HDMV/PGS
Codec ID/Info : Picture based subtitle format used on BDs/HD-DVDs
Duration : 2 h 12 min
Bit rate : 48.7 kb/s
Count of elements : 3091
Stream size : 46.0 MiB (0%)
Title : German-COMMENTARY-PGS
Language : German
Default : No
Forced : No

Text #25
ID : 42
Format : PGS
Muxing mode : zlib
Codec ID : S_HDMV/PGS
Codec ID/Info : Picture based subtitle format used on BDs/HD-DVDs
Duration : 2 h 12 min
Bit rate : 49.4 kb/s
Count of elements : 3086
Stream size : 46.7 MiB (0%)
Title : Italian-COMMENTARY-PGS
Language : Italian
Default : No
Forced : No

Text #26
ID : 43
Format : PGS
Muxing mode : zlib
Codec ID : S_HDMV/PGS
Codec ID/Info : Picture based subtitle format used on BDs/HD-DVDs
Duration : 2 h 11 min
Bit rate : 32.6 kb/s
Count of elements : 2812
Stream size : 30.8 MiB (0%)
Title : Japanese-PGS
Language : Japanese
Default : No
Forced : No

Text #27
ID : 44
Format : PGS
Muxing mode : zlib
Codec ID : S_HDMV/PGS
Codec ID/Info : Picture based subtitle format used on BDs/HD-DVDs
Duration : 2 h 10 min
Bit rate : 19.0 kb/s
Count of elements : 1109
Stream size : 17.7 MiB (0%)
Title : English-PGS
Language : English
Default : No
Forced : No

Text #28
ID : 45
Format : PGS
Muxing mode : zlib
Codec ID : S_HDMV/PGS
Codec ID/Info : Picture based subtitle format used on BDs/HD-DVDs
Duration : 2 h 11 min
Bit rate : 16.9 kb/s
Count of elements : 1106
Stream size : 15.9 MiB (0%)
Title : French-PGS
Language : French
Default : No
Forced : No

Text #29
ID : 46
Format : PGS
Muxing mode : zlib
Codec ID : S_HDMV/PGS
Codec ID/Info : Picture based subtitle format used on BDs/HD-DVDs
Duration : 2 h 9 min
Bit rate : 74.4 kb/s
Count of elements : 3752
Stream size : 68.8 MiB (0%)
Title : English-COMMENTARY-PGS
Language : English
Default : No
Forced : No

Menu
00:00:00.000 : en:Chapter 1
00:02:21.391 : en:Chapter 2
00:03:57.779 : en:Chapter 3
00:05:11.936 : en:Chapter 4
00:06:09.827 : en:Chapter 5
00:07:50.928 : en:Chapter 6
00:11:58.134 : en:Chapter 7
00:13:17.922 : en:Chapter 8
00:14:03.092 : en:Chapter 9
00:14:18.357 : en:Chapter 10
00:16:58.308 : en:Chapter 11
00:21:00.467 : en:Chapter 12
00:22:41.985 : en:Chapter 13
00:24:53.241 : en:Chapter 14
00:26:50.317 : en:Chapter 15
00:28:50.228 : en:Chapter 16
00:33:24.460 : en:Chapter 17
00:34:08.629 : en:Chapter 18
00:35:26.415 : en:Chapter 19
00:38:18.671 : en:Chapter 20
00:42:33.592 : en:Chapter 21
00:43:24.143 : en:Chapter 22
00:45:18.424 : en:Chapter 23
00:47:59.418 : en:Chapter 24
00:52:39.030 : en:Chapter 25
00:56:49.155 : en:Chapter 26
00:57:55.221 : en:Chapter 27
00:58:38.723 : en:Chapter 28
01:00:49.479 : en:Chapter 29
01:01:38.861 : en:Chapter 30
01:04:18.396 : en:Chapter 31
01:07:44.101 : en:Chapter 32
01:11:58.856 : en:Chapter 33
01:12:58.290 : en:Chapter 34
01:19:14.750 : en:Chapter 35
01:26:10.790 : en:Chapter 36
01:28:49.782 : en:Chapter 37
01:29:27.236 : en:Chapter 38
01:30:06.943 : en:Chapter 39
01:35:43.446 : en:Chapter 40
01:38:57.973 : en:Chapter 41
01:41:26.747 : en:Chapter 42
01:45:24.609 : en:Chapter 43
01:47:45.000 : en:Chapter 44
01:48:10.942 : en:Chapter 45
01:49:49.958 : en:Chapter 46
01:51:09.412 : en:Chapter 47
01:54:16.015 : en:Chapter 48
01:58:22.762 : en:Chapter 49
01:59:44.260 : en:Chapter 50
02:02:00.604 : en:Chapter 51
02:03:48.838 : en:Chapter 52
02:05:13.130 : en:Chapter 53
02:06:28.122 : en:Chapter 54
02:07:19.048 : en:Chapter 55
freetor.icu



Скачать Крепкий орешек через торрент https://c.radikal.ru/c12/1805/3a/905e29f13d3a.jpg Скачать, смотреть онлайн Крепкий орешек бесплантно в хорошем качестве Описание: В суперсовременном небоскребе Лос-Анджелеса полицейский Джон Макклейн ведет смертельную схватку с бандой политических ... 10 10 5
Info! Золотая раздача, скачанное не засчитывается.
Торрент: Зарегистрирован [2018-05-20 07:25] · скачан: 30 раз
Статус: √ проверено
Размер: 55.85 GB
Как cкачать? Как скачать Крепкий орешек через торрент | UTorrent

% Раздел Тема Автор DL S | L
Ultra HD (UHD: 2K, 4K, 8K) — видео сверхвысокой чёткости [ 27.31 GB ] Крепкий орешек 4.0 / Live Free or Die Hard [2007 UHD WEBRip 2160p] DUB + MVO + 2xAVO sheker187 Скачать
1 | 0
Ultra HD (UHD: 2K, 4K, 8K) — видео сверхвысокой чёткости [ 36.91 GB ] Крепкий орешек 2 / Die Hard 2 [1990 экранизация UHD WEBRip 2160p] DUB + 5xMVO + 4xAVO sheker187 Скачать
1 | 0
Ultra HD (UHD: 2K, 4K, 8K) — видео сверхвысокой чёткости [ 21.22 GB ] Крепкий орешек: Хороший день чтобы умереть / A Good Day to Die Hard [2013 UHD WEBRip 2160p] DUB sheker187 Скачать
1 | 0
Сборники (HD Video) [ 61.84 GB ] Крепкий орешек: Пенталогия / Die Hard: Pentalogy [1988-2013 BDRip-HEVC 1080p] DUB + MVO + DVO + AVO RealOldGamer Скачать
1 | 0
Зарубежные сериалы [ 2.57 GB ] Крепкий Харт / Крепкий орешек Харт / Die Hart / Сезон: 1 / Серии: 1-10 из 10 [2020 WEB-DL 1080p] MVO [LostFilm] bober100 Скачать
1 | 0
Ultra HD (UHD: 2K, 4K, 8K) — видео сверхвысокой чёткости [ 27.75 GB ] Крепкий орешек / Die Hard [1988 UHD BDRip 2160p] DUB+DVO+3xAVO bober100 Скачать
1 | 0
Фильмы с авторской озвучкой [ 2.36 GB ] Крепкий орешек / Die hard [1988 BDRip] 3x[AVO] + [VO] killermax2013 Скачать
1 | 0

28-11-2019 20:33  

Отключить всю рекламу на сайте

    Дорогой пользователь! Огромная просьба, поблагодарите релизера, оцените раздачу и оставьте свои комментарий, если Вы скачали Крепкий орешек через торрент бесплатно!
    Комментировать посты могут только пользователи прошедшие не сложную регистрацию
    Показать сообщения:    

    Крепкий орешек через торрент
    Скачать бесплатно Крепкий орешек
    Крепкий орешек скачать торрент
    Крепкий орешек смотреть онлайн
    Cкачать фильм Крепкий орешек бесплатно
    Крепкий орешек скачать торрент в хорошем качестве
    Крепкий орешек смотреть онлайн бесплатно в хорошем качестве


    Вы не можете начинать темы
    Вы не можете отвечать на сообщения
    Вы не можете редактировать свои сообщения
    Вы не можете удалять свои сообщения
    Вы не можете голосовать в опросах
    Вы не можете прикреплять файлы к сообщениям
    Вы можете скачивать файлы