Всегда рабочее зеркало без VPN и Proxy просто перед .vidak.icu напиши любое слово или цифру, Пример http://98fn.vidak.icu

MVO

Лицензия

1 сезон

1

1 сезон

iTunes

1 сезон

13

1 сезон

Deluxe

pack

Рекомендуем

Пиратка

30

ВАЖНО

RePack

MK11

RePack

jed

RePack

fifa19

RePack

RDR2

RePack

NEED FOR SPEED™ PAYBACK

Кинопоиск HD

6 сезон

 Острые козырьки 6 сезон

Все сериалы

все сериалы на PB.wtf

RePack

FAR CRY 5

Anonymous, нам критически не хватает 2100 руб. на оплату серверов и переферии за МАЙ, помоги нам пожалуйста, вся надежда только на тебя. В благодарность мы отключим тебе всю рекламу на сайте!

×
  
Magnet ссылка

Крепкий орешек / Die Hard (Джон МакТирнан) [1988, Боевик, триллер, драма, криминал, UHD BDRip 2160p] MVO + AVO [Гаврилов] freetor.icu

Крепкий орешек через торрент freetor.icu

Размер: 34.65 GB | Добавлен: 4 года 1 мес. назад | Торрент скачан:21 раз
Смотреть онлайн Крепкий орешек | Скачать    Ребята, помогите собрать деньги на оплату серверов!!!

17-05-2018 03:12 Крепкий орешек Скачать торрент  

Крепкий орешек / Die Hard

Год выпуска: 1988
Страна: США, Великобритания
Жанр: Боевик, триллер, драма, криминал
Продолжительность: 02:12:07
Перевод: Профессиональный многоголосый, авторский
Субтитры: Английские, испанские, французские, датские, голландские, финские, немецкие, итальянские, норвежские, шведские, китайские, чешские, польские, японские
Режиссер: Джон МакТирнан
В ролях:

Брюс Уиллис (John McClane), Алан Рикман (Hans Gruber), Бонни Беделиа (Holly Gennaro McClane), Реджинальд ВелДжонсон (Sgt. Al Powell), Пол Глисон (Deputy Police Chief Dwayne T. Robinson), Уильям Этертон (Richard Thornburg), Харт Бокнер (Harry Ellis), Джеймс Шигета (Joseph Yoshinobu Takagi), Александр Годунов (Karl), Роберт Дави (FBI Special Agent Big Johnson), Гранд Л. Буш (FBI Agent Little Johnson), Бруно Доуон (Franco)
Описание:
В суперсовременном небоскребе Лос-Анджелеса полицейский Джон Макклейн ведет смертельную схватку с бандой политических террористов, взявших в заложники два десятка человек, в число которых попадает и его жена. Началось все с того, что парень приехал в город к жене, оказался на рождественском приеме, а кончилось настоящей войной...
Рейтинг:

MPAA: R - Лицам до 17 лет обязательно присутствие взрослого
Качество: UHD BDRip 2160p
Формат: MKV
Видео: HEVC, 31.4 Mбит/с, 3840х1606, 23.976 кадр/с
Аудио #1: DTS, 6 ch, 755 Кбит/с [Многоголосый]
Аудио #2: DTS, 6 ch, 755 Кбит/с [Авторский, Гаврилов]
Аудио #3: DTS-HD MA, 6 ch, 3672 Кбит/с
Аудио #4: AC3, 6 ch, 640 Кбит/с
Навигация по главам: есть
Общее
Уникальный идентификатор : 208420278287347173475762893587723920801 (0x9CCC491656B854264D8845E6ED6125A1)
Полное имя : 1988_Die.Hard.2160p.x265.10bit.HDR.DTS-HD.MA.5.1.mkv
Формат : Matroska
Версия формата : Version 4 / Version 2
Размер файла : 34,7 Гбайт
Продолжительность : 2 ч. 12 м.
Общий поток : 37,5 Мбит/сек
Название фильма : Die.Hard.1988.2160p.BluRay.x265.10bit.HDR.DTS-HD.MA.5.1
Дата кодирования : UTC 2018-05-11 10:36:00
Программа кодирования : mkvmerge v23.0.0 ('The Bride Said No') 64-bit
Библиотека кодирования : libebml v1.3.6 + libmatroska v1.4.9
Attachments : CronosPro-Bold.ttf / CronosPro-Semibold.ttf / CronosPro-SemiboldIt.ttf

Видео
Идентификатор : 1
Формат : HEVC
Формат/Информация : High Efficiency Video Coding
Коммерческое название : HDR10
Профиль формата : Main [email protected]@High
Идентификатор кодека : V_MPEGH/ISO/HEVC
Продолжительность : 2 ч. 12 м.
Битрейт : 31,4 Мбит/сек
Ширина : 3840 пикселей
Высота : 1606 пикселей
Соотношение сторон : 2,40:1
Режим частоты кадров : Постоянный
Частота кадров : 23,976 (24000/1001) кадра/сек
Цветовое пространство : YUV
Субдискретизация насыщенности : 4:2:0 (Type 2)
Битовая глубина : 10 бит
Бит/(Пиксели*Кадры) : 0.213
Размер потока : 29,0 Гбайт (84%)
Заголовок : Die.Hard.1988.2160p.BluRay.x265.10bit.HDR.DTS-HD.MA.5.1
Библиотека кодирования : x265 2.5+4-b4a5bcfe29c7:[Windows][GCC 4.9.3][64 bit] 10bit
Настройки программы : cpuid=1173503 / frame-threads=16 / numa-pools=24,24,24,24 / wpp / no-pmode / no-pme / no-psnr / no-ssim / log-level=2 / input-csp=1 / input-res=3840x1606 / interlace=0 / total-frames=0 / level-idc=51 / high-tier=1 / uhd-bd=0 / ref=3 / no-allow-non-conformance / repeat-headers / annexb / aud / hrd / info / hash=0 / no-temporal-layers / no-open-gop / min-keyint=1 / keyint=24 / bframes=4 / b-adapt=2 / b-pyramid / bframe-bias=0 / rc-lookahead=25 / lookahead-slices=4 / scenecut=40 / no-intra-refresh / ctu=64 / min-cu-size=8 / no-rect / no-amp / max-tu-size=32 / tu-inter-depth=1 / tu-intra-depth=1 / limit-tu=0 / rdoq-level=0 / dynamic-rd=0.00 / no-ssim-rd / signhide / no-tskip / nr-intra=0 / nr-inter=0 / no-constrained-intra / strong-intra-smoothing / max-merge=2 / limit-refs=3 / no-limit-modes / me=1 / subme=2 / merange=57 / temporal-mvp / weightp / no-weightb / no-analyze-src-pics / deblock=0:0 / no-sao / no-sao-non-deblock / rd=3 / no-early-skip / rskip / no-fast-intra / no-tskip-fast / no-cu-lossless / no-b-intra / rdpenalty=0 / psy-rd=2.00 / psy-rdoq=0.00 / no-rd-refine / analysis-reuse-mode=0 / no-lossless / cbqpoffs=0 / crqpoffs=0 / rc=crf / crf=16.0 / qcomp=0.60 / qpstep=4 / stats-write=0 / stats-read=0 / vbv-maxrate=160000 / vbv-bufsize=160000 / vbv-init=0.9 / crf-max=0.0 / crf-min=0.0 / ipratio=1.40 / pbratio=1.30 / aq-mode=1 / aq-strength=1.00 / cutree / zone-count=0 / no-strict-cbr / qg-size=32 / no-rc-grain / qpmax=69 / qpmin=0 / no-const-vbv / sar=1 / overscan=0 / videoformat=5 / range=0 / colorprim=9 / transfer=16 / colormatrix=9 / chromaloc=1 / chromaloc-top=2 / chromaloc-bottom=2 / display-window=0 / master-display=G(13250,34500)B(7500,3000)R(34000,16000)WP(15635,16450)L(10000000,50) / max-cll=0,0 / min-luma=0 / max-luma=1023 / log2-max-poc-lsb=8 / vui-timing-info / vui-hrd-info / slices=1 / opt-qp-pps / opt-ref-list-length-pps / no-multi-pass-opt-rps / scenecut-bias=0.05 / no-opt-cu-delta-qp / no-aq-motion / hdr / hdr-opt / no-dhdr10-opt / analysis-reuse-level=5 / scale-factor=0 / refine-intra=0 / refine-inter=0 / refine-mv=0 / no-limit-sao / ctu-info=0
Default : Да
Forced : Нет
Цветовой диапазон : Limited
Основные цвета : BT.2020
Характеристики трансфера : PQ
Коэффициенты матрицы : BT.2020 non-constant
MasteringDisplay_ColorPrimaries : BT.709
MasteringDisplay_Luminance : min: 0.0050 cd/m2, max: 1000 cd/m2

Аудио #1
Идентификатор : 2
Формат : DTS
Формат/Информация : Digital Theater Systems
Идентификатор кодека : A_DTS
Продолжительность : 2 ч. 12 м.
Вид битрейта : Постоянный
Битрейт : 755 Кбит/сек
Каналы : 6 каналов
Расположение каналов : Front: L C R, Side: L R, LFE
Частота : 48,0 КГц
Частота кадров : 93,750 кадра/сек (512 SPF)
Битовая глубина : 24 бит
Метод сжатия : С потерями
Размер потока : 713 Мбайт (2%)
Заголовок : DTS 5.1 768k Mnogogoloska
Язык : Russian
Default : Нет
Forced : Нет

Аудио #2
Идентификатор : 3
Формат : DTS
Формат/Информация : Digital Theater Systems
Идентификатор кодека : A_DTS
Продолжительность : 2 ч. 12 м.
Вид битрейта : Постоянный
Битрейт : 755 Кбит/сек
Каналы : 6 каналов
Расположение каналов : Front: L C R, Side: L R, LFE
Частота : 48,0 КГц
Частота кадров : 93,750 кадра/сек (512 SPF)
Битовая глубина : 24 бит
Метод сжатия : С потерями
Размер потока : 713 Мбайт (2%)
Заголовок : DTS 5.1 768k Gavrilov
Язык : Russian
Default : Нет
Forced : Нет

Аудио #3
Идентификатор : 4
Формат : DTS
Формат/Информация : Digital Theater Systems
Профиль формата : MA / Core
Идентификатор кодека : A_DTS
Продолжительность : 2 ч. 12 м.
Вид битрейта : Переменный / Постоянный
Битрейт : 3672 Кбит/сек / 1509 Кбит/сек
Каналы : 6 каналов
Расположение каналов : Front: L C R, Side: L R, LFE
Частота : 48,0 КГц
Частота кадров : 93,750 кадра/сек (512 SPF)
Битовая глубина : 24 бит
Метод сжатия : Без потерь / Lossy
Размер потока : 3,39 Гбайт (10%)
Заголовок : Die.Hard.1988.2160p.BluRay.REMUX.HEVC.DTS-HD.MA.5.1
Язык : English
Default : Да
Forced : Нет

Аудио #4
Идентификатор : 5
Формат : AC-3
Формат/Информация : Audio Coding 3
Идентификатор кодека : A_AC3
Продолжительность : 2 ч. 12 м.
Вид битрейта : Постоянный
Битрейт : 640 Кбит/сек
Каналы : 6 каналов
Расположение каналов : Front: L C R, Side: L R, LFE
Частота : 48,0 КГц
Частота кадров : 31,250 кадров/сек (1536 SPF)
Битовая глубина : 16 бит
Метод сжатия : С потерями
Размер потока : 605 Мбайт (2%)
Заголовок : Die.Hard.1988.2160p.BluRay.x265.10bit.HDR.DTS-HD.MA.5.1
Язык : English
ServiceKind/String : Complete Main
Default : Нет
Forced : Нет

Текст #1
Идентификатор : 6
Формат : UTF-8
Идентификатор кодека : S_TEXT/UTF8
Идентификатор кодека/Информация : UTF-8 Plain Text
Продолжительность : 2 ч. 6 м.
Битрейт : 48 бит/сек
ElementCount : 1291
Размер потока : 45,0 Кбайт (0%)
Заголовок : English-SRT
Язык : English
Default : Да
Forced : Нет

Текст #2
Идентификатор : 7
Формат : PGS
Режим смешивания : zlib
Идентификатор кодека : S_HDMV/PGS
Идентификатор кодека/Информация : Picture based subtitle format used on BDs/HD-DVDs
Продолжительность : 2 ч. 7 м.
Битрейт : 29,7 Кбит/сек
ElementCount : 2802
Размер потока : 27,0 Мбайт (0%)
Заголовок : English-PGS
Язык : English
Default : Нет
Forced : Нет

Текст #3
Идентификатор : 8
Формат : PGS
Режим смешивания : zlib
Идентификатор кодека : S_HDMV/PGS
Идентификатор кодека/Информация : Picture based subtitle format used on BDs/HD-DVDs
Продолжительность : 2 ч. 11 м.
Битрейт : 41,6 Кбит/сек
ElementCount : 2702
Размер потока : 39,0 Мбайт (0%)
Заголовок : Spanish-PGS
Язык : Spanish
Default : Нет
Forced : Нет

Текст #4
Идентификатор : 9
Формат : PGS
Режим смешивания : zlib
Идентификатор кодека : S_HDMV/PGS
Идентификатор кодека/Информация : Picture based subtitle format used on BDs/HD-DVDs
Продолжительность : 2 ч. 11 м.
Битрейт : 40,8 Кбит/сек
ElementCount : 2084
Размер потока : 38,3 Мбайт (0%)
Заголовок : French-PGS
Язык : French
Default : Нет
Forced : Нет

Текст #5
Идентификатор : 10
Формат : PGS
Режим смешивания : zlib
Идентификатор кодека : S_HDMV/PGS
Идентификатор кодека/Информация : Picture based subtitle format used on BDs/HD-DVDs
Продолжительность : 2 ч. 11 м.
Битрейт : 47,4 Кбит/сек
ElementCount : 2110
Размер потока : 44,4 Мбайт (0%)
Заголовок : Spanish-PGS
Язык : Spanish
Default : Нет
Forced : Нет

Текст #6
Идентификатор : 11
Формат : PGS
Режим смешивания : zlib
Идентификатор кодека : S_HDMV/PGS
Идентификатор кодека/Информация : Picture based subtitle format used on BDs/HD-DVDs
Продолжительность : 2 ч. 11 м.
Битрейт : 40,7 Кбит/сек
ElementCount : 2054
Размер потока : 38,1 Мбайт (0%)
Заголовок : Danish-PGS
Язык : Danish
Default : Нет
Forced : Нет

Текст #7
Идентификатор : 12
Формат : PGS
Режим смешивания : zlib
Идентификатор кодека : S_HDMV/PGS
Идентификатор кодека/Информация : Picture based subtitle format used on BDs/HD-DVDs
Продолжительность : 2 ч. 6 м.
Битрейт : 38,6 Кбит/сек
ElementCount : 2006
Размер потока : 34,8 Мбайт (0%)
Заголовок : Dutch-PGS
Язык : Dutch
Default : Нет
Forced : Нет

Текст #8
Идентификатор : 13
Формат : PGS
Режим смешивания : zlib
Идентификатор кодека : S_HDMV/PGS
Идентификатор кодека/Информация : Picture based subtitle format used on BDs/HD-DVDs
Продолжительность : 2 ч. 11 м.
Битрейт : 46,3 Кбит/сек
ElementCount : 2024
Размер потока : 43,5 Мбайт (0%)
Заголовок : Finnish-PGS
Язык : Finnish
Default : Нет
Forced : Нет

Текст #9
Идентификатор : 14
Формат : PGS
Режим смешивания : zlib
Идентификатор кодека : S_HDMV/PGS
Идентификатор кодека/Информация : Picture based subtitle format used on BDs/HD-DVDs
Продолжительность : 2 ч. 11 м.
Битрейт : 51,5 Кбит/сек
ElementCount : 2256
Размер потока : 48,3 Мбайт (0%)
Заголовок : German-PGS
Язык : German
Default : Нет
Forced : Нет

Текст #10
Идентификатор : 15
Формат : PGS
Режим смешивания : zlib
Идентификатор кодека : S_HDMV/PGS
Идентификатор кодека/Информация : Picture based subtitle format used on BDs/HD-DVDs
Продолжительность : 2 ч. 6 м.
Битрейт : 47,1 Кбит/сек
ElementCount : 2070
Размер потока : 42,4 Мбайт (0%)
Заголовок : Italian-PGS
Язык : Italian
Default : Нет
Forced : Нет

Текст #11
Идентификатор : 16
Формат : PGS
Режим смешивания : zlib
Идентификатор кодека : S_HDMV/PGS
Идентификатор кодека/Информация : Picture based subtitle format used on BDs/HD-DVDs
Продолжительность : 2 ч. 11 м.
Битрейт : 44,2 Кбит/сек
ElementCount : 1978
Размер потока : 41,5 Мбайт (0%)
Заголовок : Norwegian-PGS
Язык : Norwegian
Default : Нет
Forced : Нет

Текст #12
Идентификатор : 17
Формат : PGS
Режим смешивания : zlib
Идентификатор кодека : S_HDMV/PGS
Идентификатор кодека/Информация : Picture based subtitle format used on BDs/HD-DVDs
Продолжительность : 2 ч. 6 м.
Битрейт : 38,5 Кбит/сек
ElementCount : 1996
Размер потока : 34,7 Мбайт (0%)
Заголовок : Swedish-PGS
Язык : Swedish
Default : Нет
Forced : Нет

Текст #13
Идентификатор : 18
Формат : PGS
Режим смешивания : zlib
Идентификатор кодека : S_HDMV/PGS
Идентификатор кодека/Информация : Picture based subtitle format used on BDs/HD-DVDs
Продолжительность : 2 ч. 6 м.
Битрейт : 26,6 Кбит/сек
ElementCount : 2850
Размер потока : 24,0 Мбайт (0%)
Заголовок : Chinese-PGS
Язык : Chinese
Default : Нет
Forced : Нет

Текст #14
Идентификатор : 19
Формат : PGS
Режим смешивания : zlib
Идентификатор кодека : S_HDMV/PGS
Идентификатор кодека/Информация : Picture based subtitle format used on BDs/HD-DVDs
Продолжительность : 2 ч. 11 м.
Битрейт : 48,3 Кбит/сек
ElementCount : 2714
Размер потока : 45,3 Мбайт (0%)
Заголовок : Czech-PGS
Язык : Czech
Default : Нет
Forced : Нет

Текст #15
Идентификатор : 20
Формат : PGS
Режим смешивания : zlib
Идентификатор кодека : S_HDMV/PGS
Идентификатор кодека/Информация : Picture based subtitle format used on BDs/HD-DVDs
Продолжительность : 2 ч. 6 м.
Битрейт : 22,8 Кбит/сек
ElementCount : 2885
Размер потока : 20,6 Мбайт (0%)
Заголовок : Chinese-PGS
Язык : Chinese
Default : Нет
Forced : Нет

Текст #16
Идентификатор : 21
Формат : PGS
Режим смешивания : zlib
Идентификатор кодека : S_HDMV/PGS
Идентификатор кодека/Информация : Picture based subtitle format used on BDs/HD-DVDs
Продолжительность : 2 ч. 11 м.
Битрейт : 45,8 Кбит/сек
ElementCount : 2802
Размер потока : 43,0 Мбайт (0%)
Заголовок : Polish-PGS
Язык : Polish
Default : Нет
Forced : Нет

Текст #17
Идентификатор : 22
Формат : PGS
Режим смешивания : zlib
Идентификатор кодека : S_HDMV/PGS
Идентификатор кодека/Информация : Picture based subtitle format used on BDs/HD-DVDs
Продолжительность : 2 ч. 6 м.
Битрейт : 16,0 Кбит/сек
ElementCount : 2208
Размер потока : 14,4 Мбайт (0%)
Заголовок : Japnanese-PGS
Язык : Japanese
Default : Нет
Forced : Нет

Текст #18
Идентификатор : 23
Формат : PGS
Режим смешивания : zlib
Идентификатор кодека : S_HDMV/PGS
Идентификатор кодека/Информация : Picture based subtitle format used on BDs/HD-DVDs
Продолжительность : 1 ч. 33 м.
Битрейт : 277 бит/сек
ElementCount : 38
Размер потока : 190 Кбайт (0%)
Заголовок : Japnanese-PGS
Язык : Japanese
Default : Нет
Forced : Нет

Текст #19
Идентификатор : 24
Формат : PGS
Режим смешивания : zlib
Идентификатор кодека : S_HDMV/PGS
Идентификатор кодека/Информация : Picture based subtitle format used on BDs/HD-DVDs
Продолжительность : 1 ч. 48 м.
Битрейт : 1389 бит/сек
ElementCount : 164
Размер потока : 1,08 Мбайт (0%)
Заголовок : Japnanese-PGS
Язык : Japanese
Default : Нет
Forced : Нет

Текст #20
Идентификатор : 25
Формат : PGS
Режим смешивания : zlib
Идентификатор кодека : S_HDMV/PGS
Идентификатор кодека/Информация : Picture based subtitle format used on BDs/HD-DVDs
Продолжительность : 1 ч. 33 м.
Битрейт : 313 бит/сек
ElementCount : 42
Размер потока : 215 Кбайт (0%)
Заголовок : Japnanese-PGS
Язык : Japanese
Default : Нет
Forced : Нет

Меню
00:00:00.000 : en:Chapter 1
00:02:21.391 : en:Chapter 2
00:03:57.779 : en:Chapter 3
00:05:11.936 : en:Chapter 4
00:06:09.827 : en:Chapter 5
00:07:50.928 : en:Chapter 6
00:11:58.134 : en:Chapter 7
00:13:17.922 : en:Chapter 8
00:14:03.092 : en:Chapter 9
00:14:18.357 : en:Chapter 10
00:16:58.308 : en:Chapter 11
00:21:00.467 : en:Chapter 12
00:22:41.985 : en:Chapter 13
00:24:53.241 : en:Chapter 14
00:26:50.317 : en:Chapter 15
00:28:50.228 : en:Chapter 16
00:33:24.460 : en:Chapter 17
00:34:08.629 : en:Chapter 18
00:35:26.415 : en:Chapter 19
00:38:18.671 : en:Chapter 20
00:42:33.592 : en:Chapter 21
00:43:24.143 : en:Chapter 22
00:45:18.424 : en:Chapter 23
00:47:59.418 : en:Chapter 24
00:52:39.030 : en:Chapter 25
00:56:49.155 : en:Chapter 26
00:57:55.221 : en:Chapter 27
00:58:38.723 : en:Chapter 28
01:00:49.479 : en:Chapter 29
01:01:38.861 : en:Chapter 30
01:04:18.396 : en:Chapter 31
01:07:44.101 : en:Chapter 32
01:11:58.856 : en:Chapter 33
01:12:58.290 : en:Chapter 34
01:19:14.750 : en:Chapter 35
01:26:10.790 : en:Chapter 36
01:28:49.782 : en:Chapter 37
01:29:27.236 : en:Chapter 38
01:30:06.943 : en:Chapter 39
01:35:43.446 : en:Chapter 40
01:38:57.973 : en:Chapter 41
01:41:26.747 : en:Chapter 42
01:45:24.609 : en:Chapter 43
01:47:45.000 : en:Chapter 44
01:48:10.942 : en:Chapter 45
01:49:49.958 : en:Chapter 46
01:51:09.412 : en:Chapter 47
01:54:16.015 : en:Chapter 48
01:58:22.762 : en:Chapter 49
01:59:44.260 : en:Chapter 50
02:02:00.604 : en:Chapter 51
02:03:48.838 : en:Chapter 52
02:05:13.130 : en:Chapter 53
02:06:28.122 : en:Chapter 54
02:07:19.048 : en:Chapter 55
freetor.icu



Скачать Крепкий орешек через торрент https://c.radikal.ru/c12/1805/3a/905e29f13d3a.jpg Скачать, смотреть онлайн Крепкий орешек бесплантно в хорошем качестве Описание: В суперсовременном небоскребе Лос-Анджелеса полицейский Джон Макклейн ведет смертельную схватку с бандой политических ... 9.6 10 5
Info! Золотая раздача, скачанное не засчитывается.
Торрент: Зарегистрирован [2018-05-17 03:12] · скачан: 21 раз
Статус: √ проверено
Размер: 34.65 GB
Как cкачать? Как скачать Крепкий орешек через торрент | UTorrent

% Раздел Тема Автор DL S | L
Ultra HD (UHD: 2K, 4K, 8K) — видео сверхвысокой чёткости [ 27.31 GB ] Крепкий орешек 4.0 / Live Free or Die Hard [2007 UHD WEBRip 2160p] DUB + MVO + 2xAVO sheker187 Скачать
1 | 0
Ultra HD (UHD: 2K, 4K, 8K) — видео сверхвысокой чёткости [ 36.91 GB ] Крепкий орешек 2 / Die Hard 2 [1990 экранизация UHD WEBRip 2160p] DUB + 5xMVO + 4xAVO sheker187 Скачать
1 | 0
Ultra HD (UHD: 2K, 4K, 8K) — видео сверхвысокой чёткости [ 21.22 GB ] Крепкий орешек: Хороший день чтобы умереть / A Good Day to Die Hard [2013 UHD WEBRip 2160p] DUB sheker187 Скачать
1 | 0
Сборники (HD Video) [ 61.84 GB ] Крепкий орешек: Пенталогия / Die Hard: Pentalogy [1988-2013 BDRip-HEVC 1080p] DUB + MVO + DVO + AVO RealOldGamer Скачать
1 | 0
Зарубежные сериалы [ 2.57 GB ] Крепкий Харт / Крепкий орешек Харт / Die Hart / Сезон: 1 / Серии: 1-10 из 10 [2020 WEB-DL 1080p] MVO [LostFilm] bober100 Скачать
1 | 0
Ultra HD (UHD: 2K, 4K, 8K) — видео сверхвысокой чёткости [ 27.75 GB ] Крепкий орешек / Die Hard [1988 UHD BDRip 2160p] DUB+DVO+3xAVO bober100 Скачать
1 | 0
Фильмы с авторской озвучкой [ 2.36 GB ] Крепкий орешек / Die hard [1988 BDRip] 3x[AVO] + [VO] killermax2013 Скачать
1 | 0

28-11-2019 20:33  

Отключить всю рекламу на сайте

02-01-2019 17:43 Крепкий орешек Скачать торрент  

есть кто на раздаче?freetor.icu



02-01-2019 21:37 Крепкий орешек Скачать торрент  

спасибо
freetor.icu



    Дорогой пользователь! Огромная просьба, поблагодарите релизера, оцените раздачу и оставьте свои комментарий, если Вы скачали Крепкий орешек через торрент бесплатно!
    Комментировать посты могут только пользователи прошедшие не сложную регистрацию
    Показать сообщения:    

    Крепкий орешек через торрент
    Скачать бесплатно Крепкий орешек
    Крепкий орешек скачать торрент
    Крепкий орешек смотреть онлайн
    Cкачать фильм Крепкий орешек бесплатно
    Крепкий орешек скачать торрент в хорошем качестве
    Крепкий орешек смотреть онлайн бесплатно в хорошем качестве


    Вы не можете начинать темы
    Вы не можете отвечать на сообщения
    Вы не можете редактировать свои сообщения
    Вы не можете удалять свои сообщения
    Вы не можете голосовать в опросах
    Вы не можете прикреплять файлы к сообщениям
    Вы можете скачивать файлы