>

8.4

Хороший звук

6.1

MVO

6.4

Line & MVO

1

7.4

1 сезон

6.8

iTunes

7.2

1 сезон

13

6.7

1 сезон

8.3

RePack

30

Deluxe

pack

9.9

Лицензия

ВАЖНО

ИГРА 18+

pack

7.3

RePack

MK11

7.7

RePack

jed

7.8

RePack

fifa19

8.5

RePack

RDR2

RePack

NEED FOR SPEED™ PAYBACK

4 сезон

9 сезон

Бесстыжие 9 сезон

Все сериалы

все сериалы на PB.wtf

RePack

FAR CRY 5

Anonymous, доброе утро, мы катастрофически не успеваем собрать деньги на оплату серверов, помогите нам пожалуйста 5,10,15р., для нас важна любая помощь . В качестве благодарности мы отключим Вам всю рекламу на сайте (укажите свой ник в строку Ваше имя)!

×
  
Magnet ссылка

Фея / Pari (Прозит Рой) [2018 г., Мелодрама, Ужасы, Триллер, HDRip, Любительский (многоголосый)] freetor.icu

Фея через торрент freetor.icu

Размер: 1.6 GB | Добавлен: 3 года 4 мес. назад | Торрент скачан:103 раза
Смотреть онлайн Фея | Скачать    Ребята, помогите собрать деньги на оплату серверов!!!

13-05-2018 09:01 Фея Скачать торрент  

Фея / Pari
Год выпуска: 2018
Страна: Индия
Жанр: Мелодрама, Ужасы, Триллер
Продолжительность: 02:14:08
Перевод: Любительский (многоголосый)
Субтитры: Отсутствуют

Режиссер: Прозит Рой

rating

В ролях: Анушка Шарма, Парамбрата Чаттерджи, Раджат Капур, Ритабхари Чакраборти, Дибюенду Бхаттачария, Митху Чакраборти, Аншуман Джха, Сантилал Мукхерджи, Манси Мултани

Описание: После знакомства с потенциальной невестой Арнаб с родителями возвращается в Калькутту на машине. Идет сильный дождь, и они насмерть сбивают пожилую женщину. Попытки выяснить её личность и найти родственников приводят Арнаба в лесную хижину, где обнаруживается девушка Руксана, сидящая на цепи. Полиция освобождает несчастную, а после похорон матери в хижину за девушкой приходит группа вооружённых мужчин с явно недобрыми намерениями. Испуганная Руксана бежит к Аранабу, а тот, чувствуя вину за происходящее, разрешает ей пожить у себя.

Качество: HDRip
Формат: AVI
Видео кодек: XviD
Аудио кодек: AC3
Видео: Xvid, 720x304, ~1499 Kbps
Аудио#1: AC3, 2 ch, 192 Kbps
скриншот   скриншот   скриншот   скриншот  

Общее
Полное имя : J:\Pari.2018.HDRip.avi
Формат : AVI
Формат/Информация : Audio Video Interleave
Профиль формата : OpenDML
Размер файла : 1,60 Гбайт
Продолжительность : 2 ч. 14 м.
Общий поток : 1702 Кбит/сек
Программа кодирования : Lavf57.71.100

Видео
Идентификатор : 0
Формат : MPEG-4 Visual
Профиль формата : Advanced Simple@L5
Параметр BVOP формата : 1
Параметр QPel формата : Нет
Параметр GMC формата : Без точки перехода
Параметр матрицы формата : Default (H.263)
Идентификатор кодека : XVID
Идентификатор кодека/Подсказка : XviD
Продолжительность : 2 ч. 14 м.
Битрейт : 1499 Кбит/сек
Ширина : 720 пикселей
Высота : 304 пикселя
Соотношение сторон : 2,35:1
Частота кадров : 25,000 кадров/сек
Цветовое пространство : YUV
Субдискретизация насыщенности : 4:2:0
Битовая глубина : 8 бит
Тип развёртки : Прогрессивная
Метод сжатия : С потерями
Бит/(Пиксели*Кадры) : 0.274
Размер потока : 1,40 Гбайт (88%)
Библиотека кодирования : XviD 67

Аудио
Идентификатор : 1
Формат : AC-3
Формат/Информация : Audio Coding 3
Расширение режима : CM (complete main)
Параметр Endianness формата : Big
Идентификатор кодека : 2000
Продолжительность : 2 ч. 14 м.
Вид битрейта : Постоянный
Битрейт : 192 Кбит/сек
Каналы : 2 канала
Расположение каналов : Front: L R
Частота : 48,0 КГц
Частота кадров : 31,250 кадров/сек (1536 spf)
Битовая глубина : 16 бит
Метод сжатия : С потерями
Размер потока : 184 Мбайт (11%)
Выравнивание : Соединение по промежуткам
Продолжительность промежутка : 32 мс. (0,80 видеокадр)

freetor.icu



Скачать Фея через торрент http://i104.fastpic.ru/big/2018/0513/2d/d3af833be4879ebbe99b933afd0c4c2d.jpg Скачать, смотреть онлайн Фея бесплантно в хорошем качестве Описание: После знакомства с потенциальной невестой Арнаб с родителями возвращается в Калькутту на машине. Идет сильный дождь, и они ... 9.6 10 5
Торрент: Зарегистрирован [2018-05-13 09:01] · скачан: 103 раз
Статус: T временная
Размер: 1.6 GB
Как cкачать? Как скачать Фея через торрент | UTorrent

% Раздел Тема Автор DL S | L
T Фильмы (мультфильмы) cо спонсором показа (Новинки AVI/MKV) [ 3 GB ] Фея / Pari [2018 TS 720p] DUB bober100 Скачать
1 | 0
T Фильмы (мультфильмы) cо спонсором показа (Новинки AVI/MKV) [ 1.36 GB ] Фея / Pari [2018 TS] DUB bober100 Скачать
1 | 0

28-11-2019 20:33  

Отключить всю рекламу на сайте

    Дорогой пользователь! Огромная просьба, поблагодарите релизера, оцените раздачу и оставьте свои комментарий, если Вы скачали Фея через торрент бесплатно!
    Комментировать посты могут только пользователи прошедшие не сложную регистрацию
    Показать сообщения:    

    Фея через торрент
    Скачать бесплатно Фея
    Фея скачать торрент
    Фея смотреть онлайн
    Cкачать фильм Фея бесплатно
    Фея скачать торрент в хорошем качестве
    Фея смотреть онлайн бесплатно в хорошем качестве


    Вы не можете начинать темы
    Вы не можете отвечать на сообщения
    Вы не можете редактировать свои сообщения
    Вы не можете удалять свои сообщения
    Вы не можете голосовать в опросах
    Вы не можете прикреплять файлы к сообщениям
    Вы можете скачивать файлы