Всегда рабочее зеркало без VPN и Proxy просто перед .vidak.icu напиши любое слово или цифру, Пример http://mdko.vidak.icu

MVO

Лицензия

1 сезон

1

1 сезон

iTunes

1 сезон

13

1 сезон

Deluxe

pack

Рекомендуем

Пиратка

30

ВАЖНО

RePack

MK11

RePack

jed

RePack

fifa19

RePack

RDR2

RePack

NEED FOR SPEED™ PAYBACK

Кинопоиск HD

6 сезон

 Острые козырьки 6 сезон

Все сериалы

все сериалы на PB.wtf

RePack

FAR CRY 5

Anonymous, нам критически не хватает 2100 руб. на оплату серверов и переферии за МАЙ, помоги нам пожалуйста, вся надежда только на тебя. В благодарность мы отключим тебе всю рекламу на сайте!

×
  
Magnet ссылка

Детройт / Detroit (Кэтрин Бигелоу) [2017, триллер, драма, криминал, UHD BDRemux 2160p] MVO [Jaskier] freetor.icu

Детройт через торрент freetor.icu

Размер: 80.12 GB | Добавлен: 4 года 2 мес. назад | Торрент скачан:18 раз
Смотреть онлайн Детройт | Скачать    Ребята, помогите собрать деньги на оплату серверов!!!

11-04-2018 02:39 Детройт Скачать торрент  

Детройт / Detroit

Год выпуска: 2017
Страна: США
Жанр: триллер, драма, криминал, история
Продолжительность: 02:24:13
Перевод: Профессиональный многоголосый [Jaskier]
Субтитры: Английские
Режиссер: Кэтрин Бигелоу
В ролях:

Джон Бойега, Уилл Поултер, Элджи Смит, Джейкоб Латимор (Fred), Джейсон Митчелл (Carl), Ханна Мюррэй (Julie), Джек Рейнор, Кейтлин Дивер, Бен О’Тул (Flynn), Джон Красински (Attorney Auerbach), Энтони Маки, Нэйтан Дэвис мл. (Aubrey)
Описание:
История о самых разрушительных городских беспорядках в истории США. Летом 1967 года уже раскаленный межрасовой проблемой Детройт возгорается бунтом, насилием и налетами, когда десяток тысяч разъяренных жителей выходит из-под контроля властей.
Рейтинг:

MPAA: R - Лицам до 17 лет обязательно присутствие взрослого
Качество: UHD BDRemux 2160p
Формат: MKV
Видео: HEVC, 70 Мбит/с, 3840x2160, 23.976 Кадр/с
Аудио #1: |RUS| DTS MA, 6 ch, 3 560 kb/s | MVO, Jaskier |
Аудио #2: |RUS| AC-3, 6 ch, 640 kb/s, | MVO, Jaskier |
Аудио #3: |ENG| DTS MA, 6 ch, 1920 kb/s | Original |
Аудио #4: |ENG| DTS MA, 6 ch, 3461 kb/s | Original |
Навигация по главам: есть
Общее
Уникальный идентификатор : 298132990545873733914844666250945813926 (0xE04A534CC5B1D8071B7FBA24658ADDA6)
Полное имя : Detroit.2017.MVO.UHD.BDRemux.2160p.HEVC.HDR.IVA(RUS.ENG).ExKinoRay.mkv
Формат : Matroska
Версия формата : Version 4 / Version 2
Размер файла : 80,1 Гбайт
Продолжительность : 2 ч. 24 м.
Общий поток : 79,5 Мбит/сек
Название фильма : Детройт / Detroit ( 2017 ) | BDRemux | HDR, 4K | IVA(RUS.ENG) | ExKinoRay
Дата кодирования : UTC 2018-04-10 18:54:54
Программа кодирования : mkvmerge v22.0.0 ('At The End Of The World') 64-bit
Библиотека кодирования : libebml v1.3.5 + libmatroska v1.4.8
Обложка : Yes

Видео
Идентификатор : 1
Формат : HEVC
Формат/Информация : High Efficiency Video Coding
Коммерческое название : HDR10
Профиль формата : Main [email protected]@High
Идентификатор кодека : V_MPEGH/ISO/HEVC
Продолжительность : 2 ч. 24 м.
Битрейт : 70,0 Мбит/сек
Ширина : 3840 пикселей
Высота : 2160 пикселей
Соотношение сторон : 16:9
Режим частоты кадров : Постоянный
Частота кадров : 23,976 (24000/1001) кадра/сек
Цветовое пространство : YUV
Субдискретизация насыщенности : 4:2:0 (Type 2)
Битовая глубина : 10 бит
Бит/(Пиксели*Кадры) : 0.352
Размер потока : 70,5 Гбайт (88%)
Библиотека кодирования : ATEME Titan File 3.8.12 (4.8.12.0)
Язык : English
Default : Да
Forced : Нет
Цветовой диапазон : Limited
Основные цвета : BT.2020
Характеристики трансфера : PQ
Коэффициенты матрицы : BT.2020 non-constant
MasteringDisplay_Luminance : min: 0.0050 cd/m2, max: 1000 cd/m2
MaxCLL : 1000 cd/m2
MaxFALL : 300 cd/m2

Аудио #1
Идентификатор : 2
Формат : DTS
Формат/Информация : Digital Theater Systems
Профиль формата : MA / Core
Идентификатор кодека : A_DTS
Продолжительность : 2 ч. 23 м.
Вид битрейта : Переменный / Постоянный
Битрейт : 3560 Кбит/сек / 1509 Кбит/сек
Каналы : 6 каналов
Расположение каналов : Front: L C R, Side: L R, LFE
Частота : 48,0 КГц
Частота кадров : 93,750 кадра/сек (512 SPF)
Битовая глубина : 24 бит
Метод сжатия : Без потерь / Lossy
Размер потока : 3,57 Гбайт (4%)
Заголовок : | MVO, Jaskier |
Язык : Russian
Default : Да
Forced : Нет

Аудио #2
Идентификатор : 3
Формат : AC-3
Формат/Информация : Audio Coding 3
Идентификатор кодека : A_AC3
Продолжительность : 2 ч. 23 м.
Вид битрейта : Постоянный
Битрейт : 640 Кбит/сек
Каналы : 6 каналов
Расположение каналов : Front: L C R, Side: L R, LFE
Частота : 48,0 КГц
Частота кадров : 31,250 кадров/сек (1536 SPF)
Битовая глубина : 16 бит
Метод сжатия : С потерями
Размер потока : 658 Мбайт (1%)
Заголовок : | MVO, Jaskier |
Язык : Russian
ServiceKind/String : Complete Main
Default : Нет
Forced : Нет

Аудио #3
Идентификатор : 4
Формат : DTS
Формат/Информация : Digital Theater Systems
Профиль формата : MA / Core
Идентификатор кодека : A_DTS
Продолжительность : 2 ч. 24 м.
Вид битрейта : Переменный / Постоянный
Битрейт : 1920 Кбит/сек / 1509 Кбит/сек
Каналы : 6 каналов
Расположение каналов : Front: L C R, Side: L R, LFE
Частота : 48,0 КГц
Частота кадров : 93,750 кадра/сек (512 SPF)
Битовая глубина : 16 бит
Метод сжатия : Без потерь / Lossy
Размер потока : 1,92 Гбайт (2%)
Заголовок : | Original |
Язык : English
Default : Нет
Forced : Нет

Аудио #4
Идентификатор : 5
Формат : DTS
Формат/Информация : Digital Theater Systems
Профиль формата : MA / Core
Идентификатор кодека : A_DTS
Продолжительность : 2 ч. 23 м.
Вид битрейта : Переменный / Постоянный
Битрейт : 3461 Кбит/сек / 1509 Кбит/сек
Каналы : 6 каналов
Расположение каналов : Front: L C R, Side: L R, LFE
Частота : 48,0 КГц
Частота кадров : 93,750 кадра/сек (512 SPF)
Битовая глубина : 24 бит
Метод сжатия : Без потерь / Lossy
Размер потока : 3,47 Гбайт (4%)
Заголовок : | Original |
Язык : English
Default : Нет
Forced : Нет

Текст
Идентификатор : 6
Формат : UTF-8
Идентификатор кодека : S_TEXT/UTF8
Идентификатор кодека/Информация : UTF-8 Plain Text
Продолжительность : 2 ч. 13 м.
Битрейт : 63 бит/сек
ElementCount : 2187
Размер потока : 62,1 Кбайт (0%)
Заголовок : Full
Язык : English
Default : Да
Forced : Нет

Меню
00:00:00.000 : en:Chapter 1
00:04:41.281 : en:Chapter 2
00:09:47.128 : en:Chapter 3
00:15:42.191 : en:Chapter 4
00:26:36.928 : en:Chapter 5
00:33:00.186 : en:Chapter 6
00:36:44.660 : en:Chapter 7
00:41:40.331 : en:Chapter 8
00:50:33.530 : en:Chapter 9
00:56:02.650 : en:Chapter 10
00:59:34.821 : en:Chapter 11
01:06:45.501 : en:Chapter 12
01:11:20.734 : en:Chapter 13
01:14:54.948 : en:Chapter 14
01:25:41.386 : en:Chapter 15
01:29:25.151 : en:Chapter 16
01:33:35.901 : en:Chapter 17
01:40:16.010 : en:Chapter 18
01:49:31.731 : en:Chapter 19
01:52:49.554 : en:Chapter 20
01:59:54.103 : en:Chapter 21
02:05:24.350 : en:Chapter 22
02:10:51.802 : en:Chapter 23
02:15:31.665 : en:Chapter 24
freetor.icu



Скачать Детройт через торрент http://i104.fastpic.ru/big/2018/0411/f0/7977c3206d0aceff2f6e0a32ca681af0.png Скачать, смотреть онлайн Детройт бесплантно в хорошем качестве Описание: История о самых разрушительных городских беспорядках в истории США. Летом 1967 года уже раскаленный межрасовой проблемой Детройт ... 10 10 2
Info! Золотая раздача, скачанное не засчитывается.
Торрент: Зарегистрирован [2018-04-11 02:39] · скачан: 18 раз
Статус: √ проверено
Размер: 80.12 GB
Как cкачать? Как скачать Детройт через торрент | UTorrent

% Раздел Тема Автор DL S | L
Фильмы (Blu-ray, BD-Remux, HDDVD) [ 41.06 GB ] Детройт / Detroit [2017 история BD Remux 1080p] MVO [Jaskier] bober100 Скачать
1 | 0
Фильмы 2017 [DVDrip, WEB-DLRip, HDrip] (DUB, MVO) [ 3.87 GB ] Детройт / Detroit [2017 история BDRip-AVC] [MVO] - ExKinoRay Enigma2010 Скачать
1 | 0
Фильмы 2017 [DVDrip, WEB-DLRip, HDrip] (DUB, MVO) [ 1.46 GB ] Детройт / Detroit [2017 история BDRip] [MVO] killermax2013 Скачать
1 | 0
Фильмы [HD 720p, 1080p] (Хороший звук DUB, MVO) [ 8.02 GB ] Детройт / Detroit [2017 история BDRip 720p] MVO [Jaskier] bober100 Скачать
1 | 0
Фильмы [HD 720p, 1080p] (Хороший звук DUB, MVO) [ 12.08 GB ] Детройт / Detroit [2017 история BDRip 1080p] MVO [Jaskier] bober100 Скачать
1 | 0
T Фильмы (мультфильмы) cо спонсором показа (Новинки AVI/MKV) [ 2.05 GB ] Детройт / Detroit [2017 история HDRip] [MVO] killermax2013 Скачать
1 | 0
Аниме [HD 720p, 1080p] [ 2.34 GB ] Детройт город металла / Detroit Metal City [2008 музыкальный HDTVRip-720p DVO ] sergey82 Скачать
1 | 0

28-11-2019 20:33  

Отключить всю рекламу на сайте

11-04-2018 04:48 Детройт Скачать торрент  

Снова фейковый 4К, на Украине уже не знают от куда бабки брать, начали народ дурить 4К дискамиfreetor.icu



11-04-2018 05:02 Детройт Скачать торрент  

ekuprienko писал(а):

Снова фейковый 4К, на Украине уже не знают от куда бабки брать, начали народ дурить 4К дисками

скажите, где вы делали лоботомию? потому что не могу понять причем здесь Украина?

ps:а лицензия будет?freetor.icu



11-04-2018 09:02 Детройт Скачать торрент  

ekuprienko, С чего вы взяли, что фейковый?

Пруф: http://www.blu-ray.com/movies/Detroit-4K-Blu-ray/198689/

Украина при чем здесь? Решили потроллить?
Перед тем, как что-то комментировать, рекомендую перечитать Правила пользования данным ресурсом.

Цитата:

5.3. Запрещены неаргументированные отрицательные комментарии в отношении релиза; в адрес релизера; в адрес других участников обсуждения.
Помните, раздачи на трекере ни в коей мере не предназначены для удовлетворения ваших личных запросов, если не нравится раздача или скорость раздачи - попробуйте поискать что-либо более подходящее вам без негативных комментариев здесь.

Цитата:

2.3. Запрещается заниматься оверпостингом, размножением офф-топиков, подстрекательством к нарушению правил, устраивать холивар*, заниматься троллингом*.

Цитата:

2.7. Отклоняться от тематики форума (на форуме запрещено заниматься политикой и прочими вещами, не связанными с тематикой форума).

Предупреждение в профиль, на месяц.freetor.icu



    Дорогой пользователь! Огромная просьба, поблагодарите релизера, оцените раздачу и оставьте свои комментарий, если Вы скачали Детройт через торрент бесплатно!
    Комментировать посты могут только пользователи прошедшие не сложную регистрацию
    Показать сообщения:    

    Детройт через торрент
    Скачать бесплатно Детройт
    Детройт скачать торрент
    Детройт смотреть онлайн
    Cкачать фильм Детройт бесплатно
    Детройт скачать торрент в хорошем качестве
    Детройт смотреть онлайн бесплатно в хорошем качестве


    Вы не можете начинать темы
    Вы не можете отвечать на сообщения
    Вы не можете редактировать свои сообщения
    Вы не можете удалять свои сообщения
    Вы не можете голосовать в опросах
    Вы не можете прикреплять файлы к сообщениям
    Вы можете скачивать файлы